img image001 image001 image001 image001 image001 image001 image001 image001 image001 image001 image001 image001 image001 image001 image001

Planets Sun Sun Sun
Статистика раздачи
Автор: Снежана | Размер: 2.19 ГБ | Добавлен: 27 июл 2013
Раздают: 23    Качают: 4
Скачать торрент
Скачать торрент
Описание торрента

СообщениеДобавлено: 27 июл 2013 

#77

Информация о фильме
Название: Кошачья жизнь
Оригинальное название: Une vie de chat
Год выхода: 2010
Жанр: мультфильм, комедия, криминал, семейный
Режиссер: Жан-Луи Фелисиоли, Ален Ганьоль
В ролях: Доминик Блан, Бруно Саломон, Жан Бенгиги, Бернадетт Лафон, Ориан Зани, Бернард Буллон, Патрик Ридремонт, Жак Рамад, Jean-Pierre Yvars, Патрик Дешам

О фильме: Дино — кот, ведущий двойную жизнь. Днем он живет с девочкой Зои и ее матерью офицером полиции, а по ночам участвует в ограблениях. Но однажды Зои проследила кота Дино…



Выпущено: Folimage
Продолжительность: 01:04:21
Перевод: Профессиональный (двухголосый, закадровый) (лицензия)

Файл
Кодек: x264
Качество: BDRip (источник: Blu-ray Disc)
Видео: 1920x1040 (16:9), 24 fps, 3970 kbps
Аудио #1: AC-3, 6 ch, 448 kbps (Rus)
Аудио #2: AC-3, 6 ch, 448 kbps (Fre)
Субтитры: Русские, Английские
Скачать: сэмпл

Скриншоты

Общее
Уникальный идентификатор : 251963558720607553186970514948319012088 (0xBD8E6A903DA0E9F49A82A7CC5D0AE4F8)
Полное имя : Une.vie.de.chat.2010.BDRip.1080p.Rus.Fre.mkv
Формат : Matroska
Версия формата : Version 2
Размер файла : 2,19 Гбайт
Продолжительность : 1 ч. 4 м.
Общий поток : 4864 Кбит/сек
Название фильма : Кошачья жизнь / Une vie de chat (2010)
Дата кодирования : UTC 2012-07-03 14:28:30
Программа кодирования : mkvmerge v5.5.0 ('Healer') built on Apr 6 2012 21:43:24
Библиотека кодирования : libebml v1.2.3 + libmatroska v1.3.0

Видео
Идентификатор : 1
Формат : AVC
Формат/Информация : Advanced Video Codec
Профиль формата : High@L4.1
Параметр CABAC формата : Да
Параметр ReFrames формата : 4 кадра
Идентификатор кодека : V_MPEG4/ISO/AVC
Продолжительность : 1 ч. 4 м.
Битрейт : 3970 Кбит/сек
Ширина : 1920 пикселей
Высота : 1040 пикселей
Соотношение сторон : 16:9
Частота кадров : 24,000 кадра/сек
Цветовое пространство : YUV
Субдискретизация насыщенности : 4:2:0
Битовая глубина : 8 бит
Тип развёртки : Прогрессивная
Бит/(Пиксели*Кадры) : 0.083
Размер потока : 1,74 Гбайт (80%)
Заголовок : Release by AlexKa
Библиотека кодирования : x264 core 125 r2200 999b753
Настройки программы : cabac=1 / ref=4 / deblock=1:0:0 / analyse=0x3:0x133 / me=umh / subme=10 / psy=1 / psy_rd=1.00:0.00 / mixed_ref=1 / me_range=32 / chroma_me=1 / trellis=2 / 8x8dct=1 / cqm=0 / deadzone=21,11 / fast_pskip=0 / chroma_qp_offset=-2 / threads=12 / lookahead_threads=2 / sliced_threads=0 / nr=0 / decimate=0 / interlaced=0 / bluray_compat=0 / constrained_intra=0 / bframes=5 / b_pyramid=2 / b_adapt=2 / b_bias=0 / direct=3 / weightb=1 / open_gop=0 / weightp=2 / keyint=240 / keyint_min=24 / scenecut=40 / intra_refresh=0 / rc_lookahead=60 / rc=2pass / mbtree=1 / bitrate=3970 / ratetol=1.0 / qcomp=0.60 / qpmin=0 / qpmax=69 / qpstep=4 / cplxblur=20.0 / qblur=0.5 / ip_ratio=1.40 / aq=1:1.00
Язык : French

Аудио #1
Идентификатор : 2
Формат : AC-3
Формат/Информация : Audio Coding 3
Расширение режима : CM (complete main)
Идентификатор кодека : A_AC3
Продолжительность : 1 ч. 4 м.
Вид битрейта : Постоянный
Битрейт : 448 Кбит/сек
Каналы : 6 каналов
Расположение каналов : Front: L C R, Side: L R, LFE
Частота : 48,0 КГц
Битовая глубина : 16 бит
Метод сжатия : С потерями
Размер потока : 206 Мбайт (9%)
Заголовок : Rus
Язык : Russian

Аудио #2
Идентификатор : 3
Формат : AC-3
Формат/Информация : Audio Coding 3
Расширение режима : CM (complete main)
Идентификатор кодека : A_AC3
Продолжительность : 1 ч. 4 м.
Вид битрейта : Постоянный
Битрейт : 448 Кбит/сек
Каналы : 6 каналов
Расположение каналов : Front: L C R, Side: L R, LFE
Частота : 48,0 КГц
Битовая глубина : 16 бит
Метод сжатия : С потерями
Размер потока : 206 Мбайт (9%)
Заголовок : Fre
Язык : French

Текст #1
Идентификатор : 4
Формат : UTF-8
Идентификатор кодека : S_TEXT/UTF8
Идентификатор кодека/Информация : UTF-8 Plain Text
Заголовок : Rus
Язык : Russian

Текст #2
Идентификатор : 5
Формат : UTF-8
Идентификатор кодека : S_TEXT/UTF8
Идентификатор кодека/Информация : UTF-8 Plain Text
Заголовок : Eng
Язык : English

Меню
00:00:00.000 : :Chapter 01
00:05:40.000 : :Chapter 02
00:13:22.500 : :Chapter 03
00:20:23.125 : :Chapter 04
00:24:06.875 : :Chapter 05
00:31:41.250 : :Chapter 06
00:37:18.750 : :Chapter 07
00:43:50.000 : :Chapter 08
00:50:18.750 : :Chapter 09
00:57:05.625 : :Chapter 10
01:04:20.541 : :Chapter 11
x264 [info]: frame I:876 Avg QP:11.82 size:266059
x264 [info]: frame P:23203 Avg QP:16.16 size: 45144
x264 [info]: frame B:68575 Avg QP:22.24 size: 9237



   Похожие торренты   Торрент   Размер 
В этой теме нет новых непрочитанных сообщений. Кошачья жизнь / A Cat in Paris / Une vie de chat (2010) BDRip от HQCLUB

5 | 3

1.1 ГБ

В этой теме нет новых непрочитанных сообщений. Кошачья жизнь / Une Vie de Chat (2010) BDRip-AVC от potroks

44 | 3

1.46 ГБ

В этой теме нет новых непрочитанных сообщений. Кошачья жизнь / Une Vie de Chat (2010) HDRip от Lebanon

2 | 2

746.39 МБ

В этой теме нет новых непрочитанных сообщений. Полицейская история 3: Суперполицейский / The Police Story 3: Supercop / Ging chat goo si 3: Chiu kup ging chat (1992) BDRip 1080p

24 | 4

4.37 ГБ

В этой теме нет новых непрочитанных сообщений. Монстр в Париже / Un monstre a Paris / A Monster in Paris (2011) BDRip 1080p

53 | 2

4.37 ГБ

В этой теме нет новых непрочитанных сообщений. Монстр в Париже / Un monstre a Paris / A Monster in Paris (2011) BDRIp 1080p от FREEISLAND

8 | 2

6.68 ГБ

В этой теме нет новых непрочитанных сообщений. Эстонка в Париже / Une estonienne à Paris / A Lady in Paris (2012) BDRip 1080p от CINEMANIA | P

96 | 3

8 ГБ




Вы не можете начинать темы
Вы не можете отвечать на сообщения
Вы не можете редактировать свои сообщения
Вы не можете удалять свои сообщения
Вы не можете добавлять вложения

Перейти:  
Для Мосгорсуда, Роскомнадзора и рекламодателей: mosgorsud-torrent[собачка]yandex.ru
 Вход
ppkBB3cker v.2 © 2008-2014 @ PPK
[ Time : 0.027s | 15 Queries | GZIP : Off ]

Торрент трекер RUTOR.IN, Не можете зайти на rutor.org? Какой новый адрес рутор? Какое зеркало рутор? Не работает rutor.org и зеркала? Тогда наш торрент специально для вас. Rutor.in неофициальное зеркало rutor. В случае если у Вас заблокирован rutor или вдруг Вы не можете на него зайти, то Вы без труда сможете скачать бесплатно и без рекламы последние новинки кино, игр, сериалов и прочего у нас, на Rutor.in. Не нужно использовать прокси, чтобы зайти на рутор, достаточно воспользоваться нашим ресурсом. Все новые фильмы, игры, сериалы, книги и музыка за 2013 и 2014 годы через торрент бесплатно. Скачивайте фильмы в хорошем качестве, игры для пк, xbox, playstation без регистрации. У нас вы найдете новые Зарубежные сериалы и Русские сериалы 2013, 2014, 2015 годов. Оставайтесь с нами, качайте любимые фильмы, игры, сериалы, книги и музыку.