img image001 image001 image001 image001 image001 image001 image001 image001 image001 image001 image001 image001 image001 image001 image001

Planets Sun Sun Sun
Статистика раздачи
Автор: Снежана | Размер: 1.43 ГБ | Добавлен: 27 июл 2013
Раздают: 12    Качают: 5
Скачать торрент
Скачать торрент
Описание торрента

СообщениеДобавлено: 27 июл 2013 

#77

Информация о фильме
Название: Ромео с обочины
Оригинальное название: Roadside Romeo
Год выхода: 2008
Жанр: мультфильм, мелодрама, комедия, семейный
Режиссер: Джугал Хансрадж
В ролях: Саиф Али Кхан, Карина Капур, Джавед Джеффри, Санджай Мишра, Танааз Куррим, Таназ Ирани, Кику Шарда

О фильме:
Это история Ромео, история о том, как домашний Ромео стал беспризорным Ромео. Пса, который жил как бог. У него был особняк, автомобиль, семья, для которой он был любимым животным. Но семья уехала и оставила его на бедных улицах Мумбаи. И нужно было выживать, оказываясь всякий раз в ситуациях, о которых он раньше даже и не подозревал.


Страна: США, Индия
Студия: The Walt Disney Company, Yash Raj Films Pvt. Ltd.
Продолжительность: 01:32:52
Перевод: Любительский (двухголосый закадровый)

Файл
Кодек: MKV, H.264
Качество: DVDRip-AVC
Видео: h264 (High), yuv420p, 720x370@852x370 [PAR 853:720 DAR 853:370], PAR 186:157 DAR 13392:5809, 1762 kbps, 23.98 fps, 59.94 tbr, 1k tbn, 180k tbc
Звук: AC3, 48000 Hz, 5.1, s16, 448 kb/s
General
Unique ID : 228263053920885475923850228066080700191 (0xABB9DD75833ED561ED9F85310E3AB71F)
Complete name : /mnt/data/Video/Мультфильмы/Roadside.Romeo.2008.Rus.L2.DVDRip-AVC.UAGet.mkv
Format : Matroska
File size : 1.43 GiB
Duration : 1h 32mn
Overall bit rate : 2 211 Kbps
Movie name : Ромео с обочины / Roadside Romeo (2008) DVDRip-AVC -=UAGet=-
Encoded date : UTC 2012-07-05 05:11:37
Writing application : mkvmerge v4.8.0 ('I Got The...') built on Aug 22 2011 13:16:28
Writing library : libebml v1.2.0 + libmatroska v1.1.0

Video
ID : 1
Format : AVC
Format/Info : Advanced Video Codec
Format profile : High@L4.1
Format settings, CABAC : Yes
Format settings, ReFrames : 8 frames
Codec ID : V_MPEG4/ISO/AVC
Duration : 1h 32mn
Bit rate : 1 762 Kbps
Width : 720 pixels
Height : 370 pixels
Display aspect ratio : 2.35:1
Frame rate mode : Variable
Frame rate : 23.976 fps
Color space : YUV
Chroma subsampling : 4:2:0
Bit depth : 8 bits
Scan type : Progressive
Bits/(Pixel*Frame) : 0.276
Stream size : 1.11 GiB (78%)
Title : Roadside Romeo (2008) DVDRip-AVC -=UAGet=-
Writing library : x264 core 112
Encoding settings : cabac=1 / ref=9 / deblock=1:-3:-2 / analyse=0x3:0x133 / me=umh / subme=10 / psy=1 / psy_rd=1,00:0,20 / mixed_ref=1 / me_range=24 / chroma_me=1 / trellis=2 / 8x8dct=1 / cqm=0 / deadzone=21,11 / fast_pskip=0 / chroma_qp_offset=-3 / threads=6 / sliced_threads=0 / nr=0 / decimate=1 / interlaced=0 / constrained_intra=0 / bframes=9 / b_pyramid=1 / b_adapt=2 / b_bias=0 / direct=3 / weightb=1 / open_gop=0 / weightp=2 / keyint=240 / keyint_min=23 / scenecut=40 / intra_refresh=0 / rc=2pass / mbtree=0 / bitrate=1762 / ratetol=1,0 / qcomp=1,00 / qpmin=3 / qpmax=51 / qpstep=4 / cplxblur=20,0 / qblur=0,5 / ip_ratio=1,40 / pb_ratio=1,30 / aq=2:0,60
Color primaries : BT.601-6 525, BT.1358 525, BT.1700 NTSC, SMPTE 170M
Transfer characteristics : BT.709-5, BT.1361
Matrix coefficients : BT.601-6 525, BT.1358 525, BT.1700 NTSC, SMPTE 170M

Audio
ID : 2
Format : AC-3
Format/Info : Audio Coding 3
Mode extension : CM (complete main)
Codec ID : A_AC3
Duration : 1h 32mn
Bit rate mode : Constant
Bit rate : 448 Kbps
Channel(s) : 6 channels
Channel positions : Front: L C R, Side: L R, LFE
Sampling rate : 48.0 KHz
Bit depth : 16 bits
Compression mode : Lossy
Stream size : 298 MiB (20%)
Title : Russian | L2
Language : Russian
Релиз от:



   Похожие торренты   Торрент   Размер 
В этой теме нет новых непрочитанных сообщений. Ромео с обочины / Roadside Romeo (2008) DVDRip от Files-x

272 | 9

1.37 ГБ

В этой теме нет новых непрочитанных сообщений. Ромео с обочины / Roadside Romeo (2008) DVD5 | L2

0 | 2

4.36 ГБ

В этой теме нет новых непрочитанных сообщений. Ромео и Джульетта / Roméo & Juliette (2002) DVDRip-AVC

109 | 10

2.67 ГБ

В этой теме нет новых непрочитанных сообщений. Курсант Ромео / Private Romeo (2011) DVDRip

15 | 2

1.24 ГБ

В этой теме нет новых непрочитанных сообщений. Ромео + Джульетта / William Shakespeare's Romeo + Juliet / Romeo + Juliet (1996) HDRip от Scarabey

13 | 3

743.57 МБ

В этой теме нет новых непрочитанных сообщений. Ромео + Джульетта / William Shakespeare's Romeo + Juliet / Romeo + Juliet (1996) HDRip от Scarabey

297 | 9

1.45 ГБ

В этой теме нет новых непрочитанных сообщений. Ромео и Джульетта / Romeo and Juliet (1968) DVDRip от kolan8

178 | 8

1.46 ГБ




Вы не можете начинать темы
Вы не можете отвечать на сообщения
Вы не можете редактировать свои сообщения
Вы не можете удалять свои сообщения
Вы не можете добавлять вложения

Перейти:  
Для Мосгорсуда, Роскомнадзора и рекламодателей: mosgorsud-torrent[собачка]yandex.ru
 Вход
ppkBB3cker v.2 © 2008-2014 @ PPK
[ Time : 0.040s | 14 Queries | GZIP : Off ]

Торрент трекер RUTOR.IN, Не можете зайти на rutor.org? Какой новый адрес рутор? Какое зеркало рутор? Не работает rutor.org и зеркала? Тогда наш торрент специально для вас. Rutor.in неофициальное зеркало rutor. В случае если у Вас заблокирован rutor или вдруг Вы не можете на него зайти, то Вы без труда сможете скачать бесплатно и без рекламы последние новинки кино, игр, сериалов и прочего у нас, на Rutor.in. Не нужно использовать прокси, чтобы зайти на рутор, достаточно воспользоваться нашим ресурсом. Все новые фильмы, игры, сериалы, книги и музыка за 2013 и 2014 годы через торрент бесплатно. Скачивайте фильмы в хорошем качестве, игры для пк, xbox, playstation без регистрации. У нас вы найдете новые Зарубежные сериалы и Русские сериалы 2013, 2014, 2015 годов. Оставайтесь с нами, качайте любимые фильмы, игры, сериалы, книги и музыку.