img image001 image001 image001 image001 image001 image001 image001 image001 image001 image001 image001 image001 image001 image001 image001

Planets Sun Sun Sun
Статистика раздачи
Автор: Снежана | Размер: 2.8 ГБ | Добавлен: 27 июл 2013
Раздают: 4    Качают: 6
Скачать торрент
Скачать торрент
Описание торрента

СообщениеДобавлено: 27 июл 2013 

Маугли
(1967-1971)
BDRip 1080p [Hi10P] от FREEISLAND




Жанр: мультфильм, приключения, семейный

Режиссер: Роман Давыдов

Роли озвучивали:
Степан Бубнов, Людмила Касаткина, Юрий Хржановский, Лев Любецкий, Сергей Мартинсон, Александр Назаров, Люсьена Овчинникова, Анатолий Папанов, Юрий Пузырев, Владимир Ушаков

Описание:
Одноимённая экранизация повести Киплинга о мальчике, воспитанном волчьей стаей, ставшим своим в джунглях, победившим своего врага - тигра Шерхана, совершившем ещё многие подвиги, и, в конце концов, ушедшем к людям.



Страна: СССР
Выпущено: Союзмультфильм
Продолжительность: 1 ч. 35 м. 40 с.
Перевод: Оригинал
Оригинальная разбивка на главы: сохранена

Внимание!

Рип в High 10 Profile, в настоящее время не поддерживается большинством аппаратных проигрывателей.
Для корректного воспроизведения может потребоваться обновление ПО.
Владельцам несовместимого железа просьба не беспокоить, на трекере есть альтернативные релизы.

Качество: BDRip 1080p Hi10P (SSIM: 0.9910328)
Исходник: Blu-Ray Disc
Контейнер: MKV
Видео кодек: x264 High10@L5.0
Аудио кодек: AC-3
Видео: AVC at 3740 Кбит/сек, 1420 x 1052 (1.350) at 25.000 fps
Аудио: AC-3 at 448 Кбит/сек, 6 каналов, 48,0 КГц
Субтитры: нет


Общее
Уникальный идентификатор : 214036977176531403806901734428700440645 (0xA10605B90F59A684B8725D589E25F845)
Полное имя : Маугли (1967-1971) BDRip-Hi10P 1080p by_F.HD.mkv
Формат : Matroska
Версия формата : Version 2
Размер файла : 2,80 Гбайт
Продолжительность : 1 ч. 35 м.
Общий поток : 4189 Кбит/сек
Название фильма : релиз от FREEISLAND.ORG
Дата кодирования : UTC 2012-07-06 15:28:46
Программа кодирования : mkvmerge v5.6.0 ('Kenya Kane') built on May 27 2012 16:44:04
Библиотека кодирования : libebml v1.2.3 + libmatroska v1.3.0

Видео
Идентификатор : 1
Формат : AVC
Формат/Информация : Advanced Video Codec
Профиль формата : High 10@L5.0
Параметр CABAC формата : Да
Параметр ReFrames формата : 16 кадров
Идентификатор кодека : V_MPEG4/ISO/AVC
Продолжительность : 1 ч. 35 м.
Битрейт : 3740 Кбит/сек
Ширина : 1420 пикселей
Высота : 1052 пикселя
Соотношение сторон : 4:3
Частота кадров : 25,000 кадров/сек
Цветовое пространство : YUV
Субдискретизация насыщенности : 4:2:0
Битовая глубина : 10 бит
Тип развёртки : Прогрессивная
Бит/(Пиксели*Кадры) : 0.100
Размер потока : 2,44 Гбайт (87%)
Библиотека кодирования : x264 core 125 r2200+666+30 20c70fc tMod [10-bit@all X86_64]
Настройки программы : cabac=1 / ref=16 / deblock=1:1:1 / analyse=0x3:0x133 / me=umh / subme=11 / psy=1 / fade_compensate=0.00 / psy_rd=1.05:0.15 / mixed_ref=1 / me_range=64 / chroma_me=1 / trellis=2 / 8x8dct=1 / cqm=0 / deadzone=21,11 / fast_pskip=0 / chroma_qp_offset=-3 / threads=12 / lookahead_threads=2 / sliced_threads=0 / nr=0 / decimate=1 / interlaced=0 / bluray_compat=0 / constrained_intra=0 / fgo=0 / bframes=9 / b_pyramid=2 / b_adapt=2 / b_bias=0 / direct=3 / weightb=1 / open_gop=0 / weightp=2 / keyint=250 / keyint_min=25 / scenecut=40 / intra_refresh=0 / rc_lookahead=0 / rc=2pass / mbtree=0 / bitrate=3740 / ratetol=1.0 / qcomp=1.00 / qpmin=0 / qpmax=48 / qpstep=4 / cplxblur=20.0 / qblur=0.5 / vbv_maxrate=240000 / vbv_bufsize=240000 / nal_hrd=none / ip_ratio=1.40 / pb_ratio=1.30 / aq=4:0.80
Default : Да
Forced : Нет
Основные цвета : BT.709-5, BT.1361, IEC 61966-2-4, SMPTE RP177
Характеристики трансфера : BT.709-5, BT.1361
Коэффициенты матрицы : BT.709-5, BT.1361, IEC 61966-2-4 709, SMPTE RP177

Аудио
Идентификатор : 2
Формат : AC-3
Формат/Информация : Audio Coding 3
Расширение режима : CM (complete main)
Идентификатор кодека : A_AC3
Продолжительность : 1 ч. 35 м.
Вид битрейта : Постоянный
Битрейт : 448 Кбит/сек
Каналы : 6 каналов
Расположение каналов : Front: L C R, Side: L R, LFE
Частота : 48,0 КГц
Битовая глубина : 16 бит
Метод сжатия : С потерями
Размер потока : 307 Мбайт (11%)
Язык : Russian
Default : Да
Forced : Нет

Меню
00:00:00.000 : ru:01 «МАУГЛИ. РАКША»
00:19:00.640 : ru:02 «МАУГЛИ. ПОХИЩЕНИЕ»
00:38:18.760 : ru:03 «МАУГЛИ. ПОСЛЕДНЯЯ ОХОТА АКЕЛЫ»
00:57:21.680 : ru:04 «МАУГЛИ. БИТВА»
01:16:28.720 : ru:05 «МАУГЛИ. ВОЗВРАЩЕНИЕ К ЛЮДЯМ»















СЭМПЛ

Релиз от:

Если у вас возникают вопросы типа:
-почему у меня есть звук и отсутствует изображение?
-почему у меня рассыпается картинка?
-почему у меня картинка фонит синевой или зеленью?
-зачем и кому всё это нужно?
и тому подобные, читаем FAQ.
ссылка на FAQ запрещена правилами.

По этому, гуглим на тему спойлера (Что такое 10-ти битное видео (High 10 Profile - Hi10P), и как его смотреть?).



   Похожие торренты   Торрент   Размер 
В этой теме нет новых непрочитанных сообщений. Маугли (1967-1971) BDRip 720p

1189 | 84

2.23 ГБ

В этой теме нет новых непрочитанных сообщений. Джентльмены удачи (1971) BDRip 1080p [Hi10P] от FREEISLAND

91 | 5

4.37 ГБ

В этой теме нет новых непрочитанных сообщений. Маугли (1967-1971) DVD5

9 | 4

3.64 ГБ

В этой теме нет новых непрочитанных сообщений. Остров (2006) BDRip 1080p [Hi10P] от FREEISLAND

85 | 4

4.37 ГБ

В этой теме нет новых непрочитанных сообщений. От винта (2012) BDRip 1080p [Hi10P] от FREEISLAND

18 | 2

2.18 ГБ

В этой теме нет новых непрочитанных сообщений. Васаби / Wasabi (2001) BDRip 1080p [Hi10P] от FREEISLAND

98 | 6

4.36 ГБ

В этой теме нет новых непрочитанных сообщений. Неудержимые / The Expendables (2010) BDRip 1080p [Hi10P] от FREEISLAND

49 | 8

4.38 ГБ




Вы не можете начинать темы
Вы не можете отвечать на сообщения
Вы не можете редактировать свои сообщения
Вы не можете удалять свои сообщения
Вы не можете добавлять вложения

Перейти:  
Для Мосгорсуда, Роскомнадзора и рекламодателей: mosgorsud-torrent[собачка]yandex.ru
 Вход
ppkBB3cker v.2 © 2008-2014 @ PPK
[ Time : 0.050s | 17 Queries | GZIP : Off ]

Торрент трекер RUTOR.IN, Не можете зайти на rutor.org? Какой новый адрес рутор? Какое зеркало рутор? Не работает rutor.org и зеркала? Тогда наш торрент специально для вас. Rutor.in неофициальное зеркало rutor. В случае если у Вас заблокирован rutor или вдруг Вы не можете на него зайти, то Вы без труда сможете скачать бесплатно и без рекламы последние новинки кино, игр, сериалов и прочего у нас, на Rutor.in. Не нужно использовать прокси, чтобы зайти на рутор, достаточно воспользоваться нашим ресурсом. Все новые фильмы, игры, сериалы, книги и музыка за 2013 и 2014 годы через торрент бесплатно. Скачивайте фильмы в хорошем качестве, игры для пк, xbox, playstation без регистрации. У нас вы найдете новые Зарубежные сериалы и Русские сериалы 2013, 2014, 2015 годов. Оставайтесь с нами, качайте любимые фильмы, игры, сериалы, книги и музыку.