img image001 image001 image001 image001 image001 image001 image001 image001 image001 image001 image001 image001 image001 image001 image001

Planets Sun Sun Sun
Статистика раздачи
Автор: Снежана | Размер: 744.12 МБ | Добавлен: 27 июл 2013
Раздают: 17    Качают: 2
Скачать торрент
Скачать торрент
Описание торрента

СообщениеДобавлено: 27 июл 2013 

#77

Информация о фильме
Название: Скуби-Ду и меч самурая
Оригинальное название: Scooby-Doo and the Samurai Sword
Год выхода: 2008
Жанр: мультфильм, детский
Режиссер: Кристофер Беркли / Christopher Berkeley
В ролях: Фрэнк Уэлкер, Кэйси Касэм, Минди Кон, Грей ДеЛайл, Келли Ху, Кевин Майкл Ричардсон, Саб Симоно, Джордж Такей, Гедде Ватанабе, Кион Янг

О фильме:
Скуби Ду и Меч Самурая и их тайная команда путешествуют по всему миру, чтобы найти какой ни будь клад, делая круги по Азии и Европы чтобы разобраться в древних загадках. 0ни соревнуются против сильного Черного Самурая и его Армии приведений чтобы попытаться достать Меч Судьбы, меч удостоен неземных сил. По дороге Скуби Ду и Шагги встречают Мастера Мечей который учит их Бошидо, путем самурая. Их способности быстро придут в действие против Нинзей Роботов. И в конце, наши измотанные герои находят то, что Бошидо это лояльность, честь и храбрость, что держит ключ к настоящей тайне…
Официальный сайт

Страна: США
Студия: Warner Bros. Home Video
Продолжительность: 01:11:35
Перевод: Профессиональный (дублированный)

Файл
Кодек: XviD / MP3
Качество: DVDRip
Видео: XviD, 640x480 (1.33:1), 25 fps, 1315 kbps, 0.17 bit/pixel
Звук: MP3, 48 kHz, stereo, 128 kbps

Format : AVI
Format/Info : Audio Video Interleave
File size : 744 MiB
Duration : 1h 11mn
Overall bit rate : 1 453 Kbps
Writing application : VirtualDubMod 1.5.10.3 | www.virtualdub-fr.org || (build 2550/release)
Writing library : VirtualDubMod build 2550/release

Video
ID : 0
Format : MPEG-4 Visual
Format profile : Advanced Simple@L5
Format settings, BVOP : Yes
Format settings, QPel : No
Format settings, GMC : No warppoints
Format settings, Matrix : Default (MPEG)
Codec ID : XVID
Codec ID/Hint : XviD
Duration : 1h 11mn
Bit rate : 1 316 Kbps
Width : 640 pixels
Height : 480 pixels
Display aspect ratio : 4:3
Frame rate : 25.000 fps
Color space : YUV
Chroma subsampling : 4:2:0
Bit depth : 8 bits
Scan type : Progressive
Bits/(Pixel*Frame) : 0.171
Stream size : 674 MiB (91%)
Writing library : XviD 1.2.1 (UTC 2008-12-04)

Audio
ID : 1
Format : MPEG Audio
Format version : Version 1
Format profile : Layer 3
Codec ID : 55
Codec ID/Hint : MP3
Duration : 1h 11mn
Bit rate mode : Constant
Bit rate : 128 Kbps
Channel(s) : 2 channels
Sampling rate : 48.0 KHz
Stream size : 65.5 MiB (9%)
Alignment : Aligned on interleaves
Interleave, duration : 40 ms (1.00 video frame)
Interleave, preload duration : 504 ms
Writing library : LAME3.98r
Encoding settings : -m s -V 4 -q 2 -lowpass 17 -b 128




   Похожие торренты   Торрент   Размер 
В этой теме нет новых непрочитанных сообщений. Скуби-Ду и меч самурая / Scooby-Doo! and the Samurai Sword (2009) BDRip-AVC от ExKinoRay | D, P

13 | 4

1.63 ГБ

В этой теме нет новых непрочитанных сообщений. Скуби-Ду и меч самурая / Scooby-Doo! and the Samurai Sword (2009) BDRip от ExKinoRay

39 | 4

1.07 ГБ

В этой теме нет новых непрочитанных сообщений. Скуби-Ду и меч самурая / Scooby-Doo! and the Samurai Sword (2009) BDRip от HQCLUB

48 | 2

1.45 ГБ

В этой теме нет новых непрочитанных сообщений. Скуби-Ду и меч самурая / Scooby-Doo and the Samurai Sword (2009) BDRip 720p от Leonardo and Scarabey

69 | 10

1.43 ГБ

В этой теме нет новых непрочитанных сообщений. Скуби-Ду! Динамит / The Scooby-Doo / Dynomutt Hour / The Scooby-Doo Show [S01-03] (1976-1978) DVDRip, TVrip

11 | 8

9.51 ГБ

В этой теме нет новых непрочитанных сообщений. Скуби-Ду и Король Гоблинов / Scooby-Doo And The Goblin King (2008) DVDRip

36 | 7

1.37 ГБ

В этой теме нет новых непрочитанных сообщений. Три самурая вне закона / Sanbiki no samurai / Three Outlaw Samurai (1964) BDRip-AVC от MediaClub | A

184 | 22

1.98 ГБ




Вы не можете начинать темы
Вы не можете отвечать на сообщения
Вы не можете редактировать свои сообщения
Вы не можете удалять свои сообщения
Вы не можете добавлять вложения

Перейти:  
Для Мосгорсуда, Роскомнадзора и рекламодателей: mosgorsud-torrent[собачка]yandex.ru
 Вход
ppkBB3cker v.2 © 2008-2014 @ PPK
[ Time : 0.049s | 14 Queries | GZIP : Off ]

Торрент трекер RUTOR.IN, Не можете зайти на rutor.org? Какой новый адрес рутор? Какое зеркало рутор? Не работает rutor.org и зеркала? Тогда наш торрент специально для вас. Rutor.in неофициальное зеркало rutor. В случае если у Вас заблокирован rutor или вдруг Вы не можете на него зайти, то Вы без труда сможете скачать бесплатно и без рекламы последние новинки кино, игр, сериалов и прочего у нас, на Rutor.in. Не нужно использовать прокси, чтобы зайти на рутор, достаточно воспользоваться нашим ресурсом. Все новые фильмы, игры, сериалы, книги и музыка за 2013 и 2014 годы через торрент бесплатно. Скачивайте фильмы в хорошем качестве, игры для пк, xbox, playstation без регистрации. У нас вы найдете новые Зарубежные сериалы и Русские сериалы 2013, 2014, 2015 годов. Оставайтесь с нами, качайте любимые фильмы, игры, сериалы, книги и музыку.