img image001 image001 image001 image001 image001 image001 image001 image001 image001 image001 image001 image001 image001 image001 image001

Planets Sun Sun Sun
Статистика раздачи
Автор: Снежана | Размер: 9.77 ГБ | Добавлен: 27 июл 2013
Раздают: 10    Качают: 1
Скачать торрент
Скачать торрент
Описание торрента

СообщениеДобавлено: 27 июл 2013 


Название: Планета Сокровищ
Оригинальное название: Treasure Planet
Страна: США
Кинокомпания: Walt Disney Pictures
Жанр: мультфильм, фантастика,приключения, семейный
Год выпуска: 2002
Продолжительность: 01:35:23
Режиссер: Рон Клементс, Джон Маскер / Ron Clements, John Musker
В ролях: Роско Ли Браун, Кори Бертон, Дэйн А. Дэвис, Джозеф Гордон-Левитт, Тони Джей, Остин Мэйджерс, Патрик МакГуэн, Майкл МакШейн, Лори Меткаф, Брайан Мюррей

Описание: Фильм начинается с легенды о Планете Сокровищ, которую создал в самом центре вселенной самый страшный из всех пиратов капитан Флинт. Сокровища он спрятал на поверхности ядра планеты. Эту легенду читает (вернее, смотрит, т.к. книга не с текстом, а с голограммой) 4х летний Джим Хокинс, а чуть позже приходит его мама. Проходит 12 лет, Джиму 16 и его выгнали из школы. Однажды он катаясь на летающем серфере с солнечным парусом, оказывается пойман полицией. Но по возвращении домой, он становится свидетелем крушения звездолёта, и спасает смертельно раненого пришельца Билли Бонса, который отдаёт ему сундук на кодовом замке. В нём оказывается круглый шар, на самом деле являющийся голографической картой галактики, и там Джим видит Планету Сокровищ. Вместе со своим другом доктором Дэлбертом Доблером он решает полететь на её поиски. Его ставят юнгой на корабль, но во время первого серьёзного задания - закрепления спасательных тросов - раскрывается нечто жуткое: весь экипаж, кроме капитана Амелии и старшего помощника мистера Эрроу, на самом деле пираты, а их лидер - киборг Джон Сильвер, служащий на корабле коком и ставший шефом Джима. За время плавания они очень привязываются друг к другу и также выясняется кое-что из прошлого Джима: его отец был солдатом и очень редко бывал дома, видимо, не особо привязанный к сыну. А когда Джиму было 12 лет, он снова уехал и так и не вернулся. А Сильвер почти стал Джиму отцом, что чувствует и сам Сильвер.
Во время закрепления тросов от клешни злого полупаука-полукраба Скрупа погибает мистер Эрроу, и все начинают ненавидеть Джима, кроме Дэлберта и Сильвера. Но однажды Джим вместе с Морфи, маленьким превращающимся любимцем Сильвера, слышит разговор экипажа, и раскрывает его капитану. Они вчетвером совершают побег, и попадают на Планету Сокровищ. Там им помогает робот Б.Э.Н. (биоэлектронный навигатор), хотя они попадают в плен. Сильвер решает уговорить Джима помочь, и они находят сокровища, но быстро теряют их, когда оказывается, что планета заминирована. Пленив почти всех пиратов, они через секретный портал капитана Флинта возвращаются туда, откуда начали - на космопорт.
Амелия и Делберт хвалят Джима, Б.Э.Н. от счастья рыдает ему в плечо, а Сильвер с Морфи по-тихому пробираются к спасательной шлюпке, чтобы удрать. Джим застукивает их, но по собственной воле отпускает. Киборг предлагает юнге улететь с ними, но парень отказывается, сказав, что старый пират научил его идти своим курсом, а не плыть по течению. Сильвер оставляет другу Морфи и горсть сокровищ на восстановление «Бэнбоу», после чего улетает на шлюпке. Спустя некоторое время трактир вновь открывается, заново отстроенный и даже обновлённый. На открытие приходят женившиеся Доблер и Амелия, с четырьмя своими детьми, Б.Э.Н., ставший из навигатора поваром, и Джим, курсант Академии Королевского Звёздного Флота. Начинаются танцы и все предаются беззаботному веселью, а Джим из окна смотрит на небо, где облако складывается в лицо Сильвера и подмигивает ему звездой.

http://www.kinopoisk.ru/film/864/
Сэмпл:http://multi-up.com/734754
Видео: 1816x1080 at 23.976 fps, MPEG-4 AVC, ~7100 kbps avg
Аудио: Russian: 48 kHz, AC3, 3/2 (L,C,R,l,r) + LFE ch, ~384.00 kbps avg |Дубляж, R5|
Аудио 2: Russian: 48 kHz/24-bit, DTS 5.1, ~1510.00 kbps avg |Двухголосый, Петр Гланц и Татьяна Казакова|
Аудио 3: Russian: 48 kHz/24-bit, DTS 5.1, ~1510.00 kbps avg |Многоголосый закадровый|
Аудио 4: Russian: 48 kHz/24-bit, DTS 5.1, ~1510.00 kbps avg |Одноголосый закадровый, A.Гаврилов|
Аудио 5: Russian: 48 kHz, AC3, 3/2 (L,C,R,l,r) + LFE ch, ~448.00 kbps avg |Одноголосый закадровый, М.Чадов|
Аудио 6: Russian: 48 kHz, AC3, 3/2 (L,C,R,l,r) + LFE ch, ~192.00 kbps avg |Одноголосый закадровый, C.Визгунов|
Аудио 7: Ukrainian: 48 kHz, AC3, 2/0 (L,R) ch, ~192.00 kbps avg |Дубляж, Новий Канал|
Аудио 8: English: 48 kHz/24-bit, DTS 5.1, ~1510.00 kbps avg |Оригинал|
Аудио 9: English: 48 kHz, AC3, 2/0 (L,R) ch, ~320.00 kbps avg |Комментарии|
Формат субтитров: softsub (SRT),русские, английские, английские(Комментарии).

Дорожка №2 получены наложением чистых голосов на центр оригинальной (Английской) DTS.

Срезать "верхушки" не стал - пожалел обведённые красным пики...Впрочем, кому-то ,возможно покажется он "дутым"...



[NoImage] x264 [info]: frame I:1192 Avg QP:12.40 size:196999
-[NoImage] x264 [info]: frame P:42867 Avg QP:14.93 size: 65070
-[NoImage] x264 [info]: frame B:93175 Avg QP:18.18 size: 21944
-[NoImage] x264 [info]: consecutive B-frames: 5.6% 6.1% 33.8% 31.8% 14.9% 5.7% 2.0%
-[NoImage] x264 [info]: mb I I16..4: 20.7% 48.6% 30.7%
-[NoImage] x264 [info]: mb P I16..4: 5.1% 10.6% 4.5% P16..4: 23.5% 19.5% 6.1% 2.7% 0.4% skip:27.6%
-[NoImage] x264 [info]: mb B I16..4: 1.1% 1.4% 0.6% B16..8: 23.9% 10.9% 2.1% direct: 3.4% skip:56.4% L0:41.5% L1:48.9% BI: 9.6%
-[NoImage] x264 [info]: 8x8 transform intra:50.2% inter:34.4%
-[NoImage] x264 [info]: direct mvs spatial:96.3% temporal:3.7%
-[NoImage] x264 [info]: coded y,uvDC,uvAC intra: 57.8% 71.2% 55.4% inter: 11.9% 13.8% 4.5%
-[NoImage] x264 [info]: i16 v,h,dc,p: 24% 21% 20% 35%
-[NoImage] x264 [info]: i8 v,h,dc,ddl,ddr,vr,hd,vl,hu: 14% 12% 26% 6% 7% 7% 8% 8% 12%
-[NoImage] x264 [info]: i4 v,h,dc,ddl,ddr,vr,hd,vl,hu: 17% 12% 26% 6% 9% 8% 8% 6% 8%
-[NoImage] x264 [info]: i8c dc,h,v,p: 37% 37% 16% 10%
-[NoImage] x264 [info]: Weighted P-Frames: Y:3.8% UV:3.1%
-[NoImage] x264 [info]: ref P L0: 59.8% 4.2% 20.3% 11.6% 3.9% 0.2%
-[NoImage] x264 [info]: ref B L0: 81.8% 13.4% 4.8%
-[NoImage] x264 [info]: ref B L1: 91.1% 8.9%
-[NoImage] x264 [info]: kb/s:7084.54
-[NoImage] encoded 137234 frames, 4.91 fps, 7084.54 kb/s


Видео
Идентификатор : 1
Формат : AVC
Формат/Информация : Advanced Video Codec
Профиль формата : High@L4.1
Параметр CABAC формата : Да
Параметр ReFrames формата : 4 кадра
Идентификатор кодека : V_MPEG4/ISO/AVC
Продолжительность : 1 ч. 35 м.
Битрейт : 7100 Кбит/сек
Ширина : 1816 пикселей
Высота : 1080 пикселей
Соотношение сторон : 1,660
Соотношение сторон в оригинале : 1,659
Частота кадров : 23,976 кадра/сек
Цветовое пространство : YUV
Субдискретизация насыщенности : 4:2:0
Битовая глубина : 8 бит
Тип развёртки : Прогрессивная
Бит/(Пиксели*Кадры) : 0.151
Размер потока : 4,53 Гбайт (46%)
Библиотека кодирования : x264 core 125 r2200 999b753
Настройки программы : cabac=1 / ref=4 / deblock=1:-3:-3 / analyse=0x3:0x133 / me=umh / subme=11 / psy=1 / psy_rd=1.00:0.00 / mixed_ref=1 / me_range=32 / chroma_me=1 / trellis=2 / 8x8dct=1 / cqm=0 / deadzone=21,11 / fast_pskip=0 / chroma_qp_offset=-2 / threads=12 / lookahead_threads=2 / sliced_threads=0 / nr=0 / decimate=1 / interlaced=0 / bluray_compat=0 / constrained_intra=0 / bframes=6 / b_pyramid=2 / b_adapt=2 / b_bias=0 / direct=3 / weightb=1 / open_gop=0 / weightp=2 / keyint=240 / keyint_min=22 / scenecut=40 / intra_refresh=0 / rc_lookahead=60 / rc=2pass / mbtree=1 / bitrate=7100 / ratetol=1.0 / qcomp=0.70 / qpmin=0 / qpmax=69 / qpstep=4 / cplxblur=20.0 / qblur=0.5 / vbv_maxrate=50000 / vbv_bufsize=62500 / nal_hrd=none / ip_ratio=1.40 / aq=2:1.00
Язык : English
Default : Нет
Forced : Нет
Основные цвета : BT.709-5, BT.1361, IEC 61966-2-4, SMPTE RP177
Аудио #1
Идентификатор : 2
Формат : AC-3
Формат/Информация : Audio Coding 3
Расширение режима : CM (complete main)
Параметр Endianness формата : Big
Идентификатор кодека : A_AC3
Продолжительность : 1 ч. 35 м.
Вид битрейта : Постоянный
Битрейт : 384 Кбит/сек
Каналы : 6 каналов
Расположение каналов : Front: L C R, Side: L R, LFE
Частота : 48,0 КГц
Битовая глубина : 16 бит
Метод сжатия : С потерями
Размер потока : 262 Мбайт (3%)
Заголовок : AC3 5.1 Dubl-R5
Язык : Russian
Default : Да
Forced : Нет
Аудио #2
Идентификатор : 3
Формат : DTS
Формат/Информация : Digital Theater Systems
Идентификатор кодека : A_DTS
Продолжительность : 1 ч. 35 м.
Вид битрейта : Постоянный
Битрейт : 1510 Кбит/сек
Каналы : 6 каналов
Расположение каналов : Front: L C R, Side: L R, LFE
Частота : 48,0 КГц
Битовая глубина : 24 бит
Метод сжатия : С потерями
Размер потока : 1,01 Гбайт (10%)
Заголовок : DTS 5.1 DVO-Петр Гланц и Татьяна Казакова
Язык : Russian
Default : Нет
Forced : Нет
Аудио #3
Идентификатор : 4
Формат : DTS
Формат/Информация : Digital Theater Systems
Идентификатор кодека : A_DTS
Продолжительность : 1 ч. 35 м.
Вид битрейта : Постоянный
Битрейт : 1510 Кбит/сек
Каналы : 6 каналов
Расположение каналов : Front: L C R, Side: L R, LFE
Частота : 48,0 КГц
Битовая глубина : 24 бит
Метод сжатия : С потерями
Размер потока : 1,01 Гбайт (10%)
Заголовок : DTS 5.1 MVO
Язык : Russian
Default : Нет
Forced : Нет
Аудио #4
Идентификатор : 5
Формат : DTS
Формат/Информация : Digital Theater Systems
Идентификатор кодека : A_DTS
Продолжительность : 1 ч. 35 м.
Вид битрейта : Постоянный
Битрейт : 1510 Кбит/сек
Каналы : 6 каналов
Расположение каналов : Front: L C R, Side: L R, LFE
Частота : 48,0 КГц
Битовая глубина : 24 бит
Метод сжатия : С потерями
Размер потока : 1,01 Гбайт (10%)
Заголовок : DTS 5.1 AVO- A.Гаврилов
Язык : Russian
Default : Нет
Forced : Нет
Аудио #5
Идентификатор : 6
Формат : AC-3
Формат/Информация : Audio Coding 3
Расширение режима : CM (complete main)
Параметр Endianness формата : Big
Идентификатор кодека : A_AC3
Продолжительность : 1 ч. 35 м.
Вид битрейта : Постоянный
Битрейт : 448 Кбит/сек
Каналы : 6 каналов
Расположение каналов : Front: L C R, Side: L R, LFE
Частота : 48,0 КГц
Битовая глубина : 16 бит
Метод сжатия : С потерями
Размер потока : 306 Мбайт (3%)
Заголовок : AC3 5.1 AVO- М.Чадов
Язык : Russian
Default : Нет
Forced : Нет
Аудио #6
Идентификатор : 7
Формат : AC-3
Формат/Информация : Audio Coding 3
Расширение режима : CM (complete main)
Параметр Endianness формата : Big
Идентификатор кодека : A_AC3
Продолжительность : 1 ч. 35 м.
Вид битрейта : Постоянный
Битрейт : 192 Кбит/сек
Каналы : 2 канала
Расположение каналов : Front: L R
Частота : 48,0 КГц
Битовая глубина : 16 бит
Метод сжатия : С потерями
Размер потока : 131 Мбайт (1%)
Заголовок : AC3 5.1 AVO-C.Визгунов
Язык : Russian
Default : Нет
Forced : Нет
Аудио #7
Идентификатор : 8
Формат : AC-3
Формат/Информация : Audio Coding 3
Расширение режима : CM (complete main)
Параметр Endianness формата : Big
Идентификатор кодека : A_AC3
Продолжительность : 1 ч. 35 м.
Вид битрейта : Постоянный
Битрейт : 192 Кбит/сек
Каналы : 2 канала
Расположение каналов : Front: L R
Частота : 48,0 КГц
Битовая глубина : 16 бит
Метод сжатия : С потерями
Размер потока : 131 Мбайт (1%)
Заголовок : AC3 2.0 Dubl-Новий Канал
Язык : Ukrainian
Default : Нет
Forced : Нет
Аудио #8
Идентификатор : 9
Формат : DTS
Формат/Информация : Digital Theater Systems
Идентификатор кодека : A_DTS
Продолжительность : 1 ч. 35 м.
Вид битрейта : Постоянный
Битрейт : 1510 Кбит/сек
Каналы : 6 каналов
Расположение каналов : Front: L C R, Side: L R, LFE
Частота : 48,0 КГц
Битовая глубина : 24 бит
Метод сжатия : С потерями
Размер потока : 1,01 Гбайт (10%)
Заголовок : DTS 5.1 Original
Язык : English
Default : Нет
Forced : Нет
Аудио #9
Идентификатор : 10
Формат : AC-3
Формат/Информация : Audio Coding 3
Расширение режима : CM (complete main)
Параметр Endianness формата : Big
Идентификатор кодека : A_AC3
Продолжительность : 1 ч. 35 м.
Вид битрейта : Постоянный
Битрейт : 320 Кбит/сек
Каналы : 2 канала
Расположение каналов : Front: L R
Частота : 48,0 КГц
Битовая глубина : 16 бит
Метод сжатия : С потерями
Размер потока : 218 Мбайт (2%)
Заголовок : AC3 2.0 Commentary
Язык : English
Default : Нет
Forced : Нет
Текст #1
Идентификатор : 11
Формат : UTF-8
Идентификатор кодека : S_TEXT/UTF8
Идентификатор кодека/Информация : UTF-8 Plain Text
Язык : Russian
Default : Нет
Forced : Нет
Текст #2
Идентификатор : 12
Формат : UTF-8
Идентификатор кодека : S_TEXT/UTF8
Идентификатор кодека/Информация : UTF-8 Plain Text
Язык : English
Default : Нет
Forced : Нет
Текст #3
Идентификатор : 13
Формат : UTF-8
Идентификатор кодека : S_TEXT/UTF8
Идентификатор кодека/Информация : UTF-8 Plain Text
Заголовок : Commentary
Язык : English
Default : Нет
Forced : Нет
Меню
00:00:00.000 : en:00:00:00.000
00:04:51.165 : en:00:04:51.165
00:12:09.101 : en:00:12:09.101
00:16:40.331 : en:00:16:40.331
00:20:34.147 : en:00:20:34.147
00:25:03.666 : en:00:25:03.666
00:30:41.923 : en:00:30:41.923
00:33:05.942 : en:00:33:05.942
00:36:43.534 : en:00:36:43.534
00:42:21.914 : en:00:42:21.914
00:46:25.072 : en:00:46:25.072
00:50:51.130 : en:00:50:51.130
00:55:04.467 : en:00:55:04.467
00:59:54.340 : en:00:59:54.340
01:03:46.655 : en:01:03:46.655
01:08:19.426 : en:01:08:19.426
01:13:05.506 : en:01:13:05.506
01:19:24.216 : en:01:19:24.216
01:23:57.407 : en:01:23:57.407
01:27:20.109 : en:01:27:20.109

Сохранены оригинальные чаптеры как на Blu-ray.
За исходник спасибо Pyha.



   Похожие торренты   Торрент   Размер 
В этой теме нет новых непрочитанных сообщений. Планета сокровищ / Treasure Planet (2002) BDRip от HQCLUB

611 | 18

1.46 ГБ

В этой теме нет новых непрочитанных сообщений. Планета сокровищ / Treasure Planet (2002) BDRip-AVC | iPad

51 | 2

2.18 ГБ

В этой теме нет новых непрочитанных сообщений. Планета сокровищ / Treasure Planet (2002) BDRip 1080р от Freeisland

98 | 11

4.36 ГБ

В этой теме нет новых непрочитанных сообщений. Планета сокровищ / Treasure Planet (2002) BDRip 720p от Leonardo and Scarabey | D | Лицензия

364 | 56

2.55 ГБ

В этой теме нет новых непрочитанных сообщений. Планета сокровищ / Treasure Planet (2002) DVDRip

114 | 5

1.37 ГБ

В этой теме нет новых непрочитанных сообщений. Планета сокровищ / Treasure Planet (2002) HDRip | D

49 | 6

743.83 МБ

В этой теме нет новых непрочитанных сообщений. Планета сокровищ / Treasure Planet (2002) DVD9

3 | 2

7.83 ГБ




Вы не можете начинать темы
Вы не можете отвечать на сообщения
Вы не можете редактировать свои сообщения
Вы не можете удалять свои сообщения
Вы не можете добавлять вложения

Перейти:  
Для Мосгорсуда, Роскомнадзора и рекламодателей: mosgorsud-torrent[собачка]yandex.ru
 Вход
ppkBB3cker v.2 © 2008-2014 @ PPK
[ Time : 0.037s | 15 Queries | GZIP : Off ]

cron