img image001 image001 image001 image001 image001 image001 image001 image001 image001 image001 image001 image001 image001 image001 image001

Planets Sun Sun Sun
Статистика раздачи
Автор: Снежана | Размер: 4.37 ГБ | Добавлен: 27 июл 2013
Раздают: 11    Качают: 5
Скачать торрент
Скачать торрент
Описание торрента

СообщениеДобавлено: 27 июл 2013 

#77

Информация о фильме
Название: Звёздные собаки: Белка и Стрелка
Год выхода: 2010
Жанр: мультфильм, комедия, приключения
Режиссер: Святослав Ушаков, Инна Евланникова
Роли озвучивали: Анна Большова, Елена Яковлева, Евгений Миронов, Сергей Гармаш, Александр Баширов, Руслан Кулешов, Сергей Юшкевич, Николай Сморчков, Всеволод Кузнецов, Жанна Никонова

О фильме:
В космос? На ракете? Белка и Стрелка вряд ли об этом мечтали. Космос сам ворвался в их жизнь. Собаки вместе с крысом Веней и другими мохнатыми претендентами в космонавты случайно оказались в эпицентре исторических событий.



Выпущено: Россия
Продолжительность: 01:28:26
Перевод: Не требуется

Файл
Кодек: x264
Качество: BDRip 1080p
Видео: 1920x1080, 6439 Kbps, 23.976 fps
Звук: 48 kHz, AC3, 6c, 640 kbps
Субтитры: Отсутствуют

General
Unique ID : 204323659759142420983606100013970879975 (0x99B74E332173D6BFAC42E1FD4493F5E7)
Complete name : Звёздные собаки. Белка и Стрелка.2010.BDRip.1080p.Rus.mkv
Format : Matroska
Format version : Version 2
File size : 4.37 GiB
Duration : 1h 28mn
Overall bit rate : 7 075 Kbps
Movie name : Звёздные собаки. Белка и Стрелка.2010
Encoded date : UTC 2012-07-24 14:56:58
Writing application : mkvmerge v5.7.0 ('The Whirlwind') built on Jul 10 2012 18:39:26
Writing library : libebml v1.2.3 + libmatroska v1.3.0

Video
ID : 1
Format : AVC
Format/Info : Advanced Video Codec
Format profile : High@L4.1
Format settings, CABAC : Yes
Format settings, ReFrames : 4 frames
Codec ID : V_MPEG4/ISO/AVC
Duration : 1h 28mn
Bit rate : 6 439 Kbps
Width : 1 920 pixels
Height : 1 080 pixels
Display aspect ratio : 16:9
Frame rate : 23.976 fps
Color space : YUV
Chroma subsampling : 4:2:0
Bit depth : 8 bits
Scan type : Progressive
Bits/(Pixel*Frame) : 0.130
Stream size : 3.89 GiB (89%)
Title : Rip by Boriy
Writing library : x264 core 125 r2200 999b753
Encoding settings : cabac=1 / ref=4 / deblock=1:0:0 / analyse=0x3:0x113 / me=umh / subme=10 / psy=1 / psy_rd=1.00:0.10 / mixed_ref=1 / me_range=32 / chroma_me=1 / trellis=2 / 8x8dct=1 / cqm=0 / deadzone=21,11 / fast_pskip=0 / chroma_qp_offset=-3 / threads=12 / lookahead_threads=2 / sliced_threads=0 / nr=0 / decimate=0 / interlaced=0 / bluray_compat=0 / constrained_intra=0 / bframes=5 / b_pyramid=2 / b_adapt=2 / b_bias=0 / direct=3 / weightb=1 / open_gop=0 / weightp=2 / keyint=240 / keyint_min=23 / scenecut=40 / intra_refresh=0 / rc_lookahead=60 / rc=2pass / mbtree=1 / bitrate=6439 / ratetol=1.0 / qcomp=0.60 / qpmin=0 / qpmax=69 / qpstep=4 / cplxblur=20.0 / qblur=0.5 / ip_ratio=1.40 / aq=1:1.00
Language : English
Default : Yes
Forced : No

Audio
ID : 2
Format : AC-3
Format/Info : Audio Coding 3
Mode extension : CM (complete main)
Format settings, Endianness : Big
Codec ID : A_AC3
Duration : 1h 28mn
Bit rate mode : Constant
Bit rate : 640 Kbps
Channel(s) : 6 channels
Channel positions : Front: L C R, Side: L R, LFE
Sampling rate : 48.0 KHz
Bit depth : 16 bits
Compression mode : Lossy
Stream size : 405 MiB (9%)
Title : Оригинал
Language : Russian
Default : Yes
Forced : No

Menu
00:00:00.000 : :Chapter 1
00:08:35.348 : :Chapter 2
00:15:24.715 : :Chapter 3
00:23:31.034 : :Chapter 4
00:29:31.269 : :Chapter 5
00:38:30.182 : :Chapter 6
00:47:56.540 : :Chapter 7
00:53:57.442 : :Chapter 8
01:00:16.529 : :Chapter 9
01:08:05.915 : :Chapter 10
01:15:25.729 : :Chapter 11
01:20:40.836 : :Chapter 12



   Похожие торренты   Торрент   Размер 
В этой теме нет новых непрочитанных сообщений. Звёздные собаки: Белка и Стрелка (2010) BDRip 1080p | 3D-Video

11 | 2

5.01 ГБ

В этой теме нет новых непрочитанных сообщений. Звёздные собаки: Белка и Стрелка (2010) BDRip 1080p | 3D-Video / Анаглиф

13 | 3

6.46 ГБ

В этой теме нет новых непрочитанных сообщений. Звёздные собаки: Белка и Стрелка (2010) Blu-ray 1080p от zmei666

0 | 3

21.2 ГБ

В этой теме нет новых непрочитанных сообщений. Звёздные собаки: Белка и Стрелка (2010) BDRip от HQ-ViDEO

8 | 1

1.46 ГБ

В этой теме нет новых непрочитанных сообщений. Звёздные собаки: Белка и Стрелка [2D] (2010) BDRip от HQCLUB

187 | 9

1.46 ГБ

В этой теме нет новых непрочитанных сообщений. Звёздные собаки: Белка и Стрелка (2010) BDRip 720 от SuperMin

375 | 13

2.74 ГБ

В этой теме нет новых непрочитанных сообщений. Белка и Стрелка. Звездные собаки (2010) PC

214 | 14

291.34 МБ




Вы не можете начинать темы
Вы не можете отвечать на сообщения
Вы не можете редактировать свои сообщения
Вы не можете удалять свои сообщения
Вы не можете добавлять вложения

Перейти:  
Для Мосгорсуда, Роскомнадзора и рекламодателей: mosgorsud-torrent[собачка]yandex.ru
 Вход
ppkBB3cker v.2 © 2008-2014 @ PPK
[ Time : 0.716s | 17 Queries | GZIP : Off ]

Торрент трекер RUTOR.IN, Не можете зайти на rutor.org? Какой новый адрес рутор? Какое зеркало рутор? Не работает rutor.org и зеркала? Тогда наш торрент специально для вас. Rutor.in неофициальное зеркало rutor. В случае если у Вас заблокирован rutor или вдруг Вы не можете на него зайти, то Вы без труда сможете скачать бесплатно и без рекламы последние новинки кино, игр, сериалов и прочего у нас, на Rutor.in. Не нужно использовать прокси, чтобы зайти на рутор, достаточно воспользоваться нашим ресурсом. Все новые фильмы, игры, сериалы, книги и музыка за 2013 и 2014 годы через торрент бесплатно. Скачивайте фильмы в хорошем качестве, игры для пк, xbox, playstation без регистрации. У нас вы найдете новые Зарубежные сериалы и Русские сериалы 2013, 2014, 2015 годов. Оставайтесь с нами, качайте любимые фильмы, игры, сериалы, книги и музыку.
cron