img image001 image001 image001 image001 image001 image001 image001 image001 image001 image001 image001 image001 image001 image001 image001

Planets Sun Sun Sun
Статистика раздачи
Автор: Снежана | Размер: 12.03 ГБ | Добавлен: 27 июл 2013
Раздают: 13    Качают: 4
Скачать торрент
Скачать торрент
Описание торрента

СообщениеДобавлено: 27 июл 2013 



Информация о фильме
Название: Жила-была Жизнь
Оригинальное название: Il etait une fois... la Vie
Жанр: Познавательный, мультипликационный, фантастика, приключения, семейный
Год выпуска: 1987
Режиссёр: Альбер Барилье / Albert Barillé
Роли озвучивали: Роже Карель, Энни Балестра, Ален Дорваль, Винсент Ропион, Заира Бенбабис, Жилль Лорен, Франсис Лакс, Хосе Люссьони, Джозеф Мейнред, Сади Реббо, Фредерик Витта

Описание:

Сериал "Жила-была Жизнь" - третий французский занимательный мультипликационный сериал «Жили-были...».Эта серия предназначена для детей и взрослых,которым любопытно по поводу функционирования их тела. На популярном языке описываются биологические ткани и органы,их функции. На простом понятном для детей языке показаны процессы,происходящие в микромире человеческого организма. Как и в каждой серии мультфильмов "Жили-были..." мы видим Маэстро, Метро,Софи, Пьера, Пьерро, темноволосую красавицу Пси, Противного и т.д. Добавились новые герои - Джамбо, Глобинка, песик Хулиганчик (Буль-буль)...Но на этот раз они олицетворяют элементы или паразитов человеческого тела. Во Франции было выпущено семь детских мультсериалов, несущих познавательный и развивающий характер.

Список серий:

00. Вступление
01. Планета клеток
02. Рождение
03. Часовые тела
04. Костный мозг
05. Кровь
06. Тромбоциты
07. Сердце
08. Дыхание
09. Мозг
10. Нейроны
11. Глаз
12. Ухо
13. Кожа
14. Рот и зубы
15. Пищеварение
16. Печень
17. Почки
18 Лимфатическая система
19. Кости и скелет
20. Мышцы и жировая ткань
21. Война с токсинами
22. Вакцинация
23. Гормоны
24. Цепь жизни
25. Ночная смена
26. А жизнь продолжается
Страна: Франция
Серии (количество): 26
Продолжительность: 26 x ~ 00:26:00
Перевод: Дубляж (Лексикон), Одноголосый - Александр Середа
Русские субтитры: нет

Файл
Качество: DVDRip
Формат: AVI
Видео: XviD, 1300 Кбит/с, 25 к/с, 704x528
Аудио 1: Русский (Дубляж от Лексикон) (AC3, 2 ch, 160 Кбит/с)
Аудио 2: Русский (Авторский одноголосый sasha200720) (МР3, 2 ch, 192 Кбит/с)
Аудио 3: Украинский (5,19-20 серии) (AC3, 2 ch, 160 Кбит/с)
Аудио 4: Польский (Дубляж) (МР3, 2 ch, 128 Кбит/с)
Аудио 5: Французский (МР3, 2 ch, 128 Кбит/с)
Аудио 6: Английский (МР3, 2 ch, 128 Кбит/с)
Аудио 7: Немецкий (МР3, 2 ch, 128 Кбит/с)
Аудио 8: Испанский (МР3, 2 ch, 128 Кбит/с)
Аудио 9: Польский (Одноголосый) (МР3, 1 ch, 48 Кбит/с)
Субтитры: отсутствуют

Общее
Полное имя : E:Zhila-byla.zhizn.(1-26.serii.iz.26).1987.XviD.DVDRip.Reliz.Kinozal.Zhila-byla.zhizn.(01.serija.iz.26).Kletka.D.1987.XviD.DVDRip.avi
Формат : AVI
Формат/Информация : Audio Video Interleave
Размер файла : 459 Мбайт
Продолжительность : 24 м.
Общий поток : 2574 Кбит/сек
Программа кодирования : VirtualDubMod 1.5.10.3 (build 2550/release)
Библиотека кодирования : VirtualDubMod build 2550/release

Видео
Идентификатор : 0
Формат : MPEG-4 Visual
Профиль формата : Advanced Simple@L5
Параметр BVOP формата : 1
Параметр QPel формата : Нет
Параметр GMC формата : Без точки перехода
Параметр матрицы формата : Default (MPEG)
Идентификатор кодека : XVID
Идентификатор кодека/Подсказка : XviD
Продолжительность : 24 м.
Битрейт : 1395 Кбит/сек
Ширина : 720 пикс.
Высота : 536 пикс.
Соотношение сторон : 4:3
Частота кадров : 25,000 кадр/сек
Цветовое пространство : YUV
Подвыборка цветности : 4:2:0
Битовая глубина : 8 бит
Тип развёртки : Прогрессивная
Метод сжатия : С потерями
Бит/(Пиксели*Кадры) : 0.145
Размер потока : 249 Мбайт (54%)
Библиотека кодирования : XviD 1.2.1 (UTC 2008-12-04)

Аудио #1
Идентификатор : 1
Формат : AC-3
Формат/Информация : Audio Coding 3
Расширение режима : CM (complete main)
Идентификатор кодека : 2000
Продолжительность : 24 м.
Вид битрейта : Постоянный
Битрейт : 160 Кбит/сек
Каналы : 2 канала
Расположение каналов : Front: L R
Частота : 48,0 КГц
Битовая глубина : 16 бит
Метод сжатия : С потерями
Размер потока : 28,5 Мбайт (6%)
Выравнивание : Разделение по промежуткам
Продолжительность промежутка : 40 мс. (1,00 видеокадр)
Время предзагрузки промежутка : 500 ms
Заголовок : Русский Дубляж (Лексикон)

Аудио #2
Идентификатор : 2
Формат : MPEG Audio
Версия формата : Version 1
Профиль формата : Layer 3
Идентификатор кодека : 55
Идентификатор кодека/Подсказка : MP3
Продолжительность : 24 м.
Вид битрейта : Постоянный
Битрейт : 160 Кбит/сек
Каналы : 2 канала
Частота : 48,0 КГц
Метод сжатия : С потерями
Размер потока : 28,6 Мбайт (6%)
Выравнивание : Соединение по промежуткам
Продолжительность промежутка : 40 мс. (1,00 видеокадр)
Время предзагрузки промежутка : 504 ms
Заголовок : Русский (А.Середа)

Аудио #3
Идентификатор : 3
Формат : MPEG Audio
Версия формата : Version 1
Профиль формата : Layer 3
Режим : Joint stereo
Расширение режима : MS Stereo
Идентификатор кодека : 55
Идентификатор кодека/Подсказка : MP3
Продолжительность : 24 м.
Вид битрейта : Постоянный
Битрейт : 128 Кбит/сек
Каналы : 2 канала
Частота : 48,0 КГц
Метод сжатия : С потерями
Размер потока : 22,8 Мбайт (5%)
Выравнивание : Соединение по промежуткам
Продолжительность промежутка : 40 мс. (1,00 видеокадр)
Время предзагрузки промежутка : 504 ms
Заголовок : Польский Дубляж
Библиотека кодирования : LAME3.97 (beta)ЄЄЄЄЄ

Аудио #4
Идентификатор : 4
Формат : AC-3
Формат/Информация : Audio Coding 3
Расширение режима : CM (complete main)
Идентификатор кодека : 2000
Продолжительность : 24 м.
Вид битрейта : Постоянный
Битрейт : 192 Кбит/сек
Каналы : 2 канала
Расположение каналов : Front: L R
Частота : 48,0 КГц
Битовая глубина : 16 бит
Метод сжатия : С потерями
Размер потока : 34,3 Мбайт (7%)
Выравнивание : Разделение по промежуткам
Продолжительность промежутка : 40 мс. (1,00 видеокадр)
Время предзагрузки промежутка : 500 ms
Заголовок : Французский

Аудио #5
Идентификатор : 5
Формат : AC-3
Формат/Информация : Audio Coding 3
Расширение режима : CM (complete main)
Идентификатор кодека : 2000
Продолжительность : 24 м.
Вид битрейта : Постоянный
Битрейт : 192 Кбит/сек
Каналы : 2 канала
Расположение каналов : Front: L R
Частота : 48,0 КГц
Битовая глубина : 16 бит
Метод сжатия : С потерями
Размер потока : 34,3 Мбайт (7%)
Выравнивание : Разделение по промежуткам
Продолжительность промежутка : 40 мс. (1,00 видеокадр)
Время предзагрузки промежутка : 500 ms
Заголовок : Английский

Аудио #6
Идентификатор : 6
Формат : MPEG Audio
Версия формата : Version 1
Профиль формата : Layer 3
Режим : Joint stereo
Расширение режима : MS Stereo
Идентификатор кодека : 55
Идентификатор кодека/Подсказка : MP3
Продолжительность : 24 м.
Вид битрейта : Постоянный
Битрейт : 128 Кбит/сек
Каналы : 2 канала
Частота : 48,0 КГц
Метод сжатия : С потерями
Размер потока : 22,8 Мбайт (5%)
Выравнивание : Соединение по промежуткам
Продолжительность промежутка : 40 мс. (1,00 видеокадр)
Время предзагрузки промежутка : 504 ms
Заголовок : Немецкий

Аудио #7
Идентификатор : 7
Формат : MPEG Audio
Версия формата : Version 1
Профиль формата : Layer 3
Режим : Joint stereo
Расширение режима : MS Stereo
Идентификатор кодека : 55
Идентификатор кодека/Подсказка : MP3
Продолжительность : 24 м.
Вид битрейта : Постоянный
Битрейт : 128 Кбит/сек
Каналы : 2 канала
Частота : 44,1 КГц
Метод сжатия : С потерями
Размер потока : 22,8 Мбайт (5%)
Выравнивание : Разделение по промежуткам
Продолжительность промежутка : 40 мс. (1,00 видеокадр)
Время предзагрузки промежутка : 500 ms
Заголовок : Испанский

Аудио #8
Идентификатор : 8
Формат : MPEG Audio
Версия формата : Version 2
Профиль формата : Layer 3
Идентификатор кодека : 55
Идентификатор кодека/Подсказка : MP3
Продолжительность : 24 м.
Вид битрейта : Постоянный
Битрейт : 48,0 Кбит/сек
Каналы : 1 канал
Частота : 24,0 КГц
Метод сжатия : С потерями
Размер потока : 8,56 Мбайт (2%)
Выравнивание : Соединение по промежуткам
Продолжительность промежутка : 40 мс. (1,00 видеокадр)
Время предзагрузки промежутка : 504 ms
Заголовок : Польский Одноголосый
От sasha20072007.
Любимый сериал детства. Нигде не мог найти. И вот...
Одноголосый перевод сделал я сам, с польской дорожки, поэтому не стоит особенно возражать, так как русского перевода не существует вообще! Плюс к этому для всех желающих, кому что, оставил две польских, французскую, английскую, немецкую и испанскую аудиодорожки. Если кому надо, то лишние звуковые дорожки удаляются за несколько секунд в маленькой бесплатной программе VirtualDubMod 1.5.10.2.2542 - Файл-Открыть. Потом во вкладке потоки Потоки-Отключить-ОК-Сохранить как... Во вкладке видео дожно быть выбрано Прямопотоковое копирование. В этой же программе можно обрезать начальные и финальные титры.
Перевод делался на слух, минуя стадию субтитров. Плюс в быту я пользуюсь только украинским языком, поэтому возможны многие фоннетические ошибки и не совсем российские слова...
У кого неразбериха со звуком - слышны все дорожки сразу - замените встроенный в Windows проигрыватель,например на Media Player Classic ИЛИ обновите K-Lite Codec Pack или запишите на диск и спокойно смотрите на любом ДВД, поддерживающем МР4



Релиз от:

Спасибо большое sasha20072007!



   Похожие торренты   Торрент   Размер 
В этой теме нет новых непрочитанных сообщений. Ограбление по-бельгийски / Il etait une fois, une fois (2012) BDRip 720p | Лицензия

14 | 2

4.67 ГБ

В этой теме нет новых непрочитанных сообщений. Ограбление по-бельгийски / Il etait une fois, une fois (2012) HDRip | Лицензия

71 | 8

1.46 ГБ

В этой теме нет новых непрочитанных сообщений. Ограбление по-бельгийски / Il etait une fois, une fois (2012) DVD5 | сжатый | P

3 | 3

4.37 ГБ

В этой теме нет новых непрочитанных сообщений. Ограбление по-бельгийски / Il etait une fois, une fois (2012) DVD9 от Youtracker

1 | 1

5.07 ГБ

В этой теме нет новых непрочитанных сообщений. Ограбление по-бельгийски / Il etait une fois, une fois (2012) HDRip | Лицензия

7 | 1

700.84 МБ

В этой теме нет новых непрочитанных сообщений. Жил-был полицейский / Il était une fois un flic (1971) DVDRip-AVC

0 | 2

1.36 ГБ

В этой теме нет новых непрочитанных сообщений. Жил-был космос / Il Etait Une Fois... L'Espace (1982) DVDRip | A

8 | 2

8.93 ГБ




Вы не можете начинать темы
Вы не можете отвечать на сообщения
Вы не можете редактировать свои сообщения
Вы не можете удалять свои сообщения
Вы не можете добавлять вложения

Перейти:  
Для Мосгорсуда, Роскомнадзора и рекламодателей: mosgorsud-torrent[собачка]yandex.ru
 Вход
ppkBB3cker v.2 © 2008-2014 @ PPK
[ Time : 0.024s | 15 Queries | GZIP : Off ]

Торрент трекер RUTOR.IN, Не можете зайти на rutor.org? Какой новый адрес рутор? Какое зеркало рутор? Не работает rutor.org и зеркала? Тогда наш торрент специально для вас. Rutor.in неофициальное зеркало rutor. В случае если у Вас заблокирован rutor или вдруг Вы не можете на него зайти, то Вы без труда сможете скачать бесплатно и без рекламы последние новинки кино, игр, сериалов и прочего у нас, на Rutor.in. Не нужно использовать прокси, чтобы зайти на рутор, достаточно воспользоваться нашим ресурсом. Все новые фильмы, игры, сериалы, книги и музыка за 2013 и 2014 годы через торрент бесплатно. Скачивайте фильмы в хорошем качестве, игры для пк, xbox, playstation без регистрации. У нас вы найдете новые Зарубежные сериалы и Русские сериалы 2013, 2014, 2015 годов. Оставайтесь с нами, качайте любимые фильмы, игры, сериалы, книги и музыку.