img image001 image001 image001 image001 image001 image001 image001 image001 image001 image001 image001 image001 image001 image001 image001

Planets Sun Sun Sun
Статистика раздачи
Автор: Снежана | Размер: 2.8 ГБ | Добавлен: 27 июл 2013
Раздают: 6    Качают: 4
Скачать торрент
Скачать торрент
Описание торрента

СообщениеДобавлено: 27 июл 2013 

#77


Информация о фильме
Название: Дельфин: История мечтателя
Оригинальное название: The Dolphin: Story of a Dreamer / El delfin: La historia de un sonador
Год выхода: 2009
Жанр: мультфильм, приключения, семейный
Режиссер: Эдуардо Шульдт

О фильме:
Главный герой мультфильма - беспокойный молодой дельфин, которому не нравится размеренная жизнь среди сородичей в тихой лагуне. Ему хочется порезвиться на просторах океана, отправиться навстречу приключениям. И однажды дельфин покидает родную лагуну вслед за своей мечтой, не представляя, какие опасности поджидают его вдали от родных мест.


Официальный сайт

Страна: Перу | Германия | Италия

Продолжительность: 01:27:45
Перевод: Профессиональный (многоголосый закадровый)

Файл
Кодек: H.264
Качество: BDRip 720p
Видео: MPEG-4 AVC 1280x720, 23.976fps, 4114kbit/s
Звук: Russian , AC3, 3/2(L,C,R,l,r)+LFE ch ~ 448 kbps avg

Общее
Уникальный идентификатор : 203000282317842294198620382057999098844 (0x98B86EA7828E5770AF28F11C5527E3DC)
Полное имя : E:торрентThe Dolphin Story of a Dreamer (2009) BDRip-F.HD.mkv
Формат : Matroska
Версия формата : Version 2
Размер файла : 2,80 Гбайт
Продолжительность : 1 ч. 27 м.
Общий поток : 4562 Кбит/сек
Дата кодирования : UTC 2012-07-26 22:30:02
Программа кодирования : mkvmerge v5.7.0 ('The Whirlwind') built on Jul 8 2012 20:08:51
Библиотека кодирования : libebml v1.2.3 + libmatroska v1.3.0

Видео
Идентификатор : 1
Формат : AVC
Формат/Информация : Advanced Video Codec
Профиль формата : High@L4.1
Параметр CABAC формата : Да
Параметр ReFrames формата : 9 кадров
Идентификатор кодека : V_MPEG4/ISO/AVC
Продолжительность : 1 ч. 27 м.
Битрейт : 4114 Кбит/сек
Ширина : 1280 пикселей
Высота : 720 пикселей
Соотношение сторон : 16:9
Частота кадров : 23,976 кадра/сек
Цветовое пространство : YUV
Субдискретизация насыщенности : 4:2:0
Битовая глубина : 8 бит
Тип развёртки : Прогрессивная
Бит/(Пиксели*Кадры) : 0.186
Размер потока : 2,47 Гбайт (88%)
Библиотека кодирования : x264 core 125 r2200 999b753
Настройки программы : cabac=1 / ref=9 / deblock=1:0:0 / analyse=0x3:0x113 / me=umh / subme=10 / psy=1 / psy_rd=0.90:0.00 / mixed_ref=1 / me_range=32 / chroma_me=1 / trellis=2 / 8x8dct=1 / cqm=0 / deadzone=21,11 / fast_pskip=0 / chroma_qp_offset=-2 / threads=6 / lookahead_threads=1 / sliced_threads=0 / nr=0 / decimate=1 / interlaced=0 / bluray_compat=0 / constrained_intra=0 / bframes=7 / b_pyramid=2 / b_adapt=2 / b_bias=0 / direct=3 / weightb=1 / open_gop=0 / weightp=2 / keyint=240 / keyint_min=23 / scenecut=40 / intra_refresh=0 / rc=2pass / mbtree=0 / bitrate=4114 / ratetol=1.0 / qcomp=0.70 / qpmin=10 / qpmax=51 / qpstep=4 / cplxblur=20.0 / qblur=0.5 / ip_ratio=1.40 / pb_ratio=1.30 / aq=2:0.70
Язык : English
Default : Да
Forced : Нет
Основные цвета : BT.709-5, BT.1361, IEC 61966-2-4, SMPTE RP177
Характеристики трансфера : BT.709-5, BT.1361
Коэффициенты матрицы : BT.709-5, BT.1361, IEC 61966-2-4 709, SMPTE RP177

Аудио
Идентификатор : 2
Формат : AC-3
Формат/Информация : Audio Coding 3
Расширение режима : CM (complete main)
Параметр Endianness формата : Big
Идентификатор кодека : A_AC3
Продолжительность : 1 ч. 27 м.
Вид битрейта : Постоянный
Битрейт : 448 Кбит/сек
Каналы : 6 каналов
Расположение каналов : Front: L C R, Side: L R, LFE
Частота : 48,0 КГц
Битовая глубина : 16 бит
Метод сжатия : С потерями
Размер потока : 281 Мбайт (10%)
Язык : Russian
Default : Да
Forced : Нет

Меню
00:00:00.000 : en:Chapter 01
00:08:46.817 : en:Chapter 02
00:17:33.719 : en:Chapter 03
00:27:46.956 : en:Chapter 04
00:34:55.426 : en:Chapter 05
00:44:01.680 : en:Chapter 06
00:51:09.232 : en:Chapter 07
00:56:10.700 : en:Chapter 08
01:07:25.041 : en:Chapter 09
01:17:58.799 : en:Chapter 10
01:27:44.968 : en:Chapter 11



Релиз от:



   Похожие торренты   Торрент   Размер 
В этой теме нет новых непрочитанных сообщений. Дельфин: История мечтателя / El delfín: La historia de un soñador (2009) DVD5

1 | 2

3.81 ГБ

В этой теме нет новых непрочитанных сообщений. Дельфин: История мечтателя / El delfín: La historia de un soñador (2009) HDRip от ExKinoRay

4 | 6

1.08 ГБ

В этой теме нет новых непрочитанных сообщений. Дельфин: История мечтателя / El delfín: La historia de un soñador (2009) HDRip-AVC от ExKinoRay

21 | 6

1.63 ГБ

В этой теме нет новых непрочитанных сообщений. Дельфин: История мечтателя / The Dolphin: Story of a Dreamer (2009) DVDRip

28 | 8

1.37 ГБ

В этой теме нет новых непрочитанных сообщений. Вестсайдская история / West Side Story [50th Anniversary Edition] (1961) BDRip 720p от FREEISLAND

0 | 2

6.57 ГБ

В этой теме нет новых непрочитанных сообщений. Dolphin (Дельфин) - Андрей (2014) MP3

470 | 27

127.34 МБ

В этой теме нет новых непрочитанных сообщений. Мечтатель / Dreamer: Inspired by a True Story (2005) BDRip 720p от Element team

4 | 4

2.19 ГБ




Вы не можете начинать темы
Вы не можете отвечать на сообщения
Вы не можете редактировать свои сообщения
Вы не можете удалять свои сообщения
Вы не можете добавлять вложения

Перейти:  
Для Мосгорсуда, Роскомнадзора и рекламодателей: mosgorsud-torrent[собачка]yandex.ru
 Вход
ppkBB3cker v.2 © 2008-2014 @ PPK
[ Time : 0.055s | 14 Queries | GZIP : Off ]

Торрент трекер RUTOR.IN, Не можете зайти на rutor.org? Какой новый адрес рутор? Какое зеркало рутор? Не работает rutor.org и зеркала? Тогда наш торрент специально для вас. Rutor.in неофициальное зеркало rutor. В случае если у Вас заблокирован rutor или вдруг Вы не можете на него зайти, то Вы без труда сможете скачать бесплатно и без рекламы последние новинки кино, игр, сериалов и прочего у нас, на Rutor.in. Не нужно использовать прокси, чтобы зайти на рутор, достаточно воспользоваться нашим ресурсом. Все новые фильмы, игры, сериалы, книги и музыка за 2013 и 2014 годы через торрент бесплатно. Скачивайте фильмы в хорошем качестве, игры для пк, xbox, playstation без регистрации. У нас вы найдете новые Зарубежные сериалы и Русские сериалы 2013, 2014, 2015 годов. Оставайтесь с нами, качайте любимые фильмы, игры, сериалы, книги и музыку.