img image001 image001 image001 image001 image001 image001 image001 image001 image001 image001 image001 image001 image001 image001 image001

Planets Sun Sun Sun
Статистика раздачи
Автор: Снежана | Размер: 2.19 ГБ | Добавлен: 27 июл 2013
Раздают: 824    Качают: 23
Скачать торрент
Скачать торрент
Описание торрента

СообщениеДобавлено: 27 июл 2013 

Ледниковый период / Ice Age (2002) BDRip 720p
от DHT-Movies

#77

Название: Ледниковый период
Оригинальное название: Ice Age
Год выхода: 2002
Жанр: мультфильм, комедия, приключения, семейный
Режиссер: Крис Уэдж, Карлос Салдана



В ролях:

Рэй Романо, Джон Легуизамо, Денис Лири, Горан Вишнич, Джек Блэк, Седрик «Развлекатель», Стивен Рут, Дидрих Бадер, Алан Тьюдик, Лорри Бэгли

Описание:

Веселые и опасные приключения героев. 20 тыс. лет назад. Чтобы избежать приближающегося из-за наступления ледникового периода холода, животные мигрируют на юг. Однако некоторые из них все-таки решают остаться — одинокий, угрюмый мамонт Манфред, а также бесшабашный ленивец Сид.

Случайно эта парочка наталкивается на человеческого детеныша. Они решаются вернуть его людям и отправляются в путешествие. По пути они встречают саблезубого хитрого тигра. И теперь этой веселой компании предстоят забавные приключения!


Страна: США
Продолжительность: 01:21:09
Перевод: Дубляж (Профессиональный[Лицензия]) + Оригинал (Английский)
Субтитры: Русские (full)

Релиз группа: | by AVT83


Качество: BDRip 720p | Ice Age (2002) Blu-ray EUR 1080p AVC DTS 5.1
Формат: MKV
Видео кодек: H.264
Видео: 1280x696/1.85:1/23.976 fps/2 958 Kbps/0.138 Bits/(Pixel*Frame)
Аудио (Русский): 48 kHz, AC3 Dolby Digital, 3/2 (L,C,R,l,r) + LFE ch, ~ 448 kbps avg | ( Дубляж)
Аудио (Английский): 48 kHz, AC3 Dolby Digital, 3/2 (L,C,R,l,r) + LFE ch, ~ 448 kbps avg | (Оригинал)


Format : Matroska
Format version : Version 2
File size : 2.19 GiB
Duration : 1h 21mn
Overall bit rate : 3 855 Kbps
Encoded date : UTC 2012-07-01 07:44:11
Writing application : mkvmerge v4.0.0 ('The Stars were mine') built on Jun 6 2010 16:18:42
Writing library : libebml v1.0.0 + libmatroska v1.0.0

Video
ID : 1
Format : AVC
Format/Info : Advanced Video Codec
Format profile : High@L4.1
Format settings, CABAC : Yes
Format settings, ReFrames : 9 frames
Codec ID : V_MPEG4/ISO/AVC
Duration : 1h 21mn
Bit rate : 2 958 Kbps
Width : 1 280 pixels
Height : 696 pixels
Display aspect ratio : 1.85:1
Frame rate : 23.976 fps
Color space : YUV
Chroma subsampling : 4:2:0
Bit depth : 8 bits
Scan type : Progressive
Bits/(Pixel*Frame) : 0.138
Stream size : 1.63 GiB (75%)
Writing library : x264 core 119 r2106 07efeb4
Encoding settings : cabac=1 / ref=9 / deblock=1:-1:-1 / analyse=0x3:0x113 / me=esa / subme=11 / psy=1 / psy_rd=0.80:0.05 / mixed_ref=1 / me_range=32 / chroma_me=1 / trellis=2 / 8x8dct=1 / cqm=0 / deadzone=21,11 / fast_pskip=0 / chroma_qp_offset=-3 / threads=6 / sliced_threads=0 / nr=0 / decimate=0 / interlaced=0 / bluray_compat=0 / constrained_intra=0 / bframes=9 / b_pyramid=2 / b_adapt=2 / b_bias=0 / direct=3 / weightb=1 / open_gop=0 / weightp=2 / keyint=240 / keyint_min=23 / scenecut=40 / intra_refresh=0 / rc_lookahead=45 / rc=2pass / mbtree=1 / bitrate=2958 / ratetol=1.0 / qcomp=0.70 / qpmin=0 / qpmax=69 / qpstep=4 / cplxblur=20.0 / qblur=0.5 / ip_ratio=1.40 / aq=1:1.00
Language : English
Default : No
Forced : No

Audio #1
ID : 2
Format : AC-3
Format/Info : Audio Coding 3
Mode extension : CM (complete main)
Format settings, Endianness : Big
Codec ID : A_AC3
Duration : 1h 21mn
Bit rate mode : Constant
Bit rate : 448 Kbps
Channel(s) : 6 channels
Channel positions : Front: L C R, Side: L R, LFE
Sampling rate : 48.0 KHz
Bit depth : 16 bits
Compression mode : Lossy
Stream size : 260 MiB (12%)
Title : Дубляж
Language : Russian
Default : Yes
Forced : No

Audio #2
ID : 3
Format : AC-3
Format/Info : Audio Coding 3
Mode extension : CM (complete main)
Format settings, Endianness : Big
Codec ID : A_AC3
Duration : 1h 21mn
Bit rate mode : Constant
Bit rate : 448 Kbps
Channel(s) : 6 channels
Channel positions : Front: L C R, Side: L R, LFE
Sampling rate : 48.0 KHz
Bit depth : 16 bits
Compression mode : Lossy
Stream size : 260 MiB (12%)
Title : Оригинал
Language : English
Default : No
Forced : No

Text
ID : 4
Format : UTF-8
Codec ID : S_TEXT/UTF8
Codec ID/Info : UTF-8 Plain Text
Title : full
Language : Russian
Default : Yes
Forced : No






   Похожие торренты   Торрент   Размер 
В этой теме нет новых непрочитанных сообщений. Ледниковый период / Ice Age (2002) 720p BDRip от HQCLUB

179 | 12

4.48 ГБ

В этой теме нет новых непрочитанных сообщений. Ледниковый период / Ice Age (2002) BDRip 720p от Leonardo and Scarabey | iPad

970 | 46

805.45 МБ

В этой теме нет новых непрочитанных сообщений. Ледниковый период [Трилогия] / Ice Age [Trilogy] (2002-2009) HDRip- BDRip-AVC 720p

177 | 19

4.34 ГБ

В этой теме нет новых непрочитанных сообщений. Ледниковый Период: Квадрология / Ice Age: Quadrilogy (2002-2012) BDRip-720p | Дополнительные материалы

143 | 32

5.65 ГБ

В этой теме нет новых непрочитанных сообщений. Ледниковый период / Ice Age (2002) BDRip 1080p

283 | 18

4.37 ГБ

В этой теме нет новых непрочитанных сообщений. Ледниковый период / Ice Age (2002) BDRip от HELLYWOOD

1514 | 153

1.71 ГБ

В этой теме нет новых непрочитанных сообщений. Ледниковый период / Ice Age (2002) BDRip от HQ-ViDEO

618 | 23

1.46 ГБ




Вы не можете начинать темы
Вы не можете отвечать на сообщения
Вы не можете редактировать свои сообщения
Вы не можете удалять свои сообщения
Вы не можете добавлять вложения

Перейти:  
Для Мосгорсуда, Роскомнадзора и рекламодателей: mosgorsud-torrent[собачка]yandex.ru
 Вход
ppkBB3cker v.2 © 2008-2014 @ PPK
[ Time : 0.080s | 15 Queries | GZIP : Off ]

Торрент трекер RUTOR.IN, Не можете зайти на rutor.org? Какой новый адрес рутор? Какое зеркало рутор? Не работает rutor.org и зеркала? Тогда наш торрент специально для вас. Rutor.in неофициальное зеркало rutor. В случае если у Вас заблокирован rutor или вдруг Вы не можете на него зайти, то Вы без труда сможете скачать бесплатно и без рекламы последние новинки кино, игр, сериалов и прочего у нас, на Rutor.in. Не нужно использовать прокси, чтобы зайти на рутор, достаточно воспользоваться нашим ресурсом. Все новые фильмы, игры, сериалы, книги и музыка за 2013 и 2014 годы через торрент бесплатно. Скачивайте фильмы в хорошем качестве, игры для пк, xbox, playstation без регистрации. У нас вы найдете новые Зарубежные сериалы и Русские сериалы 2013, 2014, 2015 годов. Оставайтесь с нами, качайте любимые фильмы, игры, сериалы, книги и музыку.