img image001 image001 image001 image001 image001 image001 image001 image001 image001 image001 image001 image001 image001 image001 image001

Planets Sun Sun Sun
Статистика раздачи
Автор: Снежана | Размер: 4.37 ГБ | Добавлен: 27 июл 2013
Раздают: 57    Качают: 10
Скачать торрент
Скачать торрент
Описание торрента

СообщениеДобавлено: 27 июл 2013 

#77

Информация о фильме
Название: Смывайся
Оригинальное название: Flushed Away
Год выхода: 2006
Жанр: Мультфильм, комедия, приключения, семейный
Режиссер: Дэвид Бауэрс, Сэм Фелл
В ролях: Хью Джекман, Кейт Уинслет, Иэн МакКеллен, Жан Рено, Билл Найи, Энди Серкис, Шэйн Ричи, Кэти Бурк, Дэвид Суше, Мириам Марголис

О фильме:
Родди — привилегированная крыса, живущая жизнью любимого домашнего животного в престижном пентхаусе. Однажды засорившаяся раковина «выплевывает» в квартиру канализационную крысу Сида, которому приходятся по душе роскошные апартаменты.
Чтобы избавиться от надоедливого гостя, Родди решает смыть его в унитаз, но житель канализации не такой простак, каким кажется, и в итоге в унитазе оказывается сам Родди. Попав в канализацию, ему предстоит привыкнуть к совершенно новой, незнакомой ему жизни…



Страна: США, Великобритания
Студия: DreamWorks Animation, Aardman Animations
Продолжительность: 01:24:33
Перевод: Дублированный + Оригинал

Файл
Кодек: x264
Качество: HDTVRip 1080p (источник: HDTV / 1080i)
Видео: 1920х1080 (16:9), 6564 Kbps, 23.976 fps, 0.132 bit/pixel
Аудио #1: 48.0 kHz, AC3 Dolby Digital, 3/2 (L,C,R,l,r) + LFE ch, 448 kbps [Rus]
Аудио #2: 48.0 kHz, AC3 Dolby Digital, 3/2 (L,C,R,l,r) + LFE ch, 384 kbps [Eng]
Субтитры: Нет

Семпл




General
Unique ID : 222805267447160369742736548597048062761 (0xA79EBBCF76474574A9191E797754B329)
Complete name : D:Flushed.Away.2006.x264.HDTVRip.1080p.mkv
Format : Matroska
Format version : Version 2
File size : 4.37 GiB
Duration : 1h 24mn
Overall bit rate : 7 390 Kbps
Encoded date : UTC 2012-07-28 09:34:09
Writing application : mkvmerge v5.7.0 ('The Whirlwind') built on Jul 8 2012 20:08:51
Writing library : libebml v1.2.3 + libmatroska v1.3.0

Video
ID : 1
Format : AVC
Format/Info : Advanced Video Codec
Format profile : High@L4.1
Format settings, CABAC : Yes
Format settings, ReFrames : 4 frames
Codec ID : V_MPEG4/ISO/AVC
Duration : 1h 24mn
Bit rate : 6 564 Kbps
Width : 1 920 pixels
Height : 1 080 pixels
Display aspect ratio : 16:9
Frame rate : 23.976 fps
Color space : YUV
Chroma subsampling : 4:2:0
Bit depth : 8 bits
Scan type : Progressive
Bits/(Pixel*Frame) : 0.132
Stream size : 3.79 GiB (87%)
Writing library : x264 core 125 r2208 d9d2288
Encoding settings : cabac=1 / ref=4 / deblock=1:0:0 / analyse=0x3:0x133 / me=umh / subme=11 / psy=1 / psy_rd=0.95:0.10 / mixed_ref=1 / me_range=64 / chroma_me=1 / trellis=2 / 8x8dct=1 / cqm=0 / deadzone=21,11 / fast_pskip=0 / chroma_qp_offset=-3 / threads=6 / lookahead_threads=1 / sliced_threads=0 / nr=0 / decimate=1 / interlaced=0 / bluray_compat=0 / constrained_intra=0 / bframes=5 / b_pyramid=2 / b_adapt=2 / b_bias=0 / direct=3 / weightb=1 / open_gop=0 / weightp=2 / keyint=250 / keyint_min=23 / scenecut=40 / intra_refresh=0 / rc_lookahead=60 / rc=2pass / mbtree=1 / bitrate=6564 / ratetol=1.0 / qcomp=0.60 / qpmin=0 / qpmax=69 / qpstep=4 / cplxblur=20.0 / qblur=0.5 / ip_ratio=1.40 / aq=2:0.90
Language : English
Default : Yes
Forced : No

Audio #1
ID : 2
Format : AC-3
Format/Info : Audio Coding 3
Mode extension : CM (complete main)
Format settings, Endianness : Big
Codec ID : A_AC3
Duration : 1h 24mn
Bit rate mode : Constant
Bit rate : 448 Kbps
Channel(s) : 6 channels
Channel positions : Front: L C R, Side: L R, LFE
Sampling rate : 48.0 KHz
Bit depth : 16 bits
Compression mode : Lossy
Stream size : 271 MiB (6%)
Title : AC3 5.1ch 448 kbps - Дубляж
Language : Russian
Default : Yes
Forced : No

Audio #2
ID : 3
Format : AC-3
Format/Info : Audio Coding 3
Mode extension : CM (complete main)
Format settings, Endianness : Big
Codec ID : A_AC3
Duration : 1h 24mn
Bit rate mode : Constant
Bit rate : 384 Kbps
Channel(s) : 6 channels
Channel positions : Front: L C R, Side: L R, LFE
Sampling rate : 48.0 KHz
Bit depth : 16 bits
Compression mode : Lossy
Stream size : 232 MiB (5%)
Title : AC3 5.1ch 384 kbps - Оригинал
Language : English
Default : No
Forced : No



   Похожие торренты   Торрент   Размер 
В этой теме нет новых непрочитанных сообщений. Смывайся / Flushed Away (2006) HDTV 1080p от PskovLine

46 | 18

6.14 ГБ

В этой теме нет новых непрочитанных сообщений. Смывайся / Flushed Away (2006) HDTVRip от Ildarec014

280 | 20

1.46 ГБ

В этой теме нет новых непрочитанных сообщений. Смывайся! / Flushed Away! (2006) HDTVRip 720p от HD Club

47 | 6

2.62 ГБ

В этой теме нет новых непрочитанных сообщений. Смывайся / Flushed Away (2006) HDRip от Generalfilm

48 | 25

702.29 МБ

В этой теме нет новых непрочитанных сообщений. Смывайся (DVD бонус - Слизняки) / Flushed Away Sweatslugs (2006) DVDRip

2 | 3

25.07 МБ

В этой теме нет новых непрочитанных сообщений. Хороший год / A Good Year (2006) HDTVRip 1080p

78 | 15

5.59 ГБ

В этой теме нет новых непрочитанных сообщений. Убежденный холостяк / The Man Who Can't Get Married [01x01-02] (2006) HDTVRip 1080p

0 | 2

2.41 ГБ




Вы не можете начинать темы
Вы не можете отвечать на сообщения
Вы не можете редактировать свои сообщения
Вы не можете удалять свои сообщения
Вы не можете добавлять вложения

Перейти:  
Для Мосгорсуда, Роскомнадзора и рекламодателей: mosgorsud-torrent[собачка]yandex.ru
 Вход
ppkBB3cker v.2 © 2008-2014 @ PPK
[ Time : 2.726s | 14 Queries | GZIP : On ]

Торрент трекер RUTOR.IN, Не можете зайти на rutor.org? Какой новый адрес рутор? Какое зеркало рутор? Не работает rutor.org и зеркала? Тогда наш торрент специально для вас. Rutor.in неофициальное зеркало rutor. В случае если у Вас заблокирован rutor или вдруг Вы не можете на него зайти, то Вы без труда сможете скачать бесплатно и без рекламы последние новинки кино, игр, сериалов и прочего у нас, на Rutor.in. Не нужно использовать прокси, чтобы зайти на рутор, достаточно воспользоваться нашим ресурсом. Все новые фильмы, игры, сериалы, книги и музыка за 2013 и 2014 годы через торрент бесплатно. Скачивайте фильмы в хорошем качестве, игры для пк, xbox, playstation без регистрации. У нас вы найдете новые Зарубежные сериалы и Русские сериалы 2013, 2014, 2015 годов. Оставайтесь с нами, качайте любимые фильмы, игры, сериалы, книги и музыку.