img image001 image001 image001 image001 image001 image001 image001 image001 image001 image001 image001 image001 image001 image001 image001

Planets Sun Sun Sun
Статистика раздачи
Автор: Снежана | Размер: 4.38 ГБ | Добавлен: 27 июл 2013
Раздают: 15    Качают: 7
Скачать торрент
Скачать торрент
Описание торрента

СообщениеДобавлено: 27 июл 2013 

#77

Название: Не бей копытом
Оригинальное название: Home on the Range
Год выхода: 2004
Жанр: мультфильм, семейный, вестерн, музыка
Режиссер: Уилл Финн, Джон Санфорд
Роли озвучивали: Дж. У. Бейли, Розанна, Бобби Блок, Стив Бушеми, Кэрол Кук, Чарли Делл, Джуди Денч, Чарльз Дэннис, Маршалл Эфрон, Джо Флаэрти

О фильме:
Жизнь на ферме проста и привольна. Хозяева и питомцы живут душа в душу, поют песни и веселяться. Но внезапно этой идиллии приходит конец. На смену обанкротившимся владельцам фермы приходит безжалостный делец, желающий продать землю и избавиться от животных.
Естественно, это не устраивает привыкших к сладкой жизни четвероногих и пернатых обитателей. Начинается потрясающе смешная «партизанская война». Руководителями бунта выступают конь Бак и три коровы-непоседы, решившие пойти на все, чтобы спасти ферму от разорения…



Выпущено: США
Продолжительность: 01:16:12
Перевод: Дублированный + Оригинал

Файл
Кодек: x264
Качество: BDRip 1080p
Видео: 1920x1080, 6935 Kbps, 23.976 fps
Аудио #1: AC-3, 6 ch, 640 kbps (Rus)
Аудио #2: AC-3, 6 ch, 640 kbps (Eng)
Cубтитры: русские, английские

General
Unique ID : 220865781441806511658209552411290529863 (0xA62933C47D0CA46BB46131CE3B347047)
Complete name : Не бей копытом.2004.BDRip.1080p.Rus.Eng.mkv
Format : Matroska
Format version : Version 2
File size : 4.38 GiB
Duration : 1h 16mn
Overall bit rate : 8 221 Kbps
Movie name : Не бей копытом.2004
Encoded date : UTC 2012-07-31 18:04:20
Writing application : mkvmerge v5.7.0 ('The Whirlwind') built on Jul 30 2012 20:20:16
Writing library : libebml v1.2.3 + libmatroska v1.3.0

Video
ID : 1
Format : AVC
Format/Info : Advanced Video Codec
Format profile : High@L4.1
Format settings, CABAC : Yes
Format settings, ReFrames : 4 frames
Codec ID : V_MPEG4/ISO/AVC
Duration : 1h 16mn
Bit rate : 6 935 Kbps
Width : 1 920 pixels
Height : 1 080 pixels
Display aspect ratio : 16:9
Frame rate : 23.976 fps
Color space : YUV
Chroma subsampling : 4:2:0
Bit depth : 8 bits
Scan type : Progressive
Bits/(Pixel*Frame) : 0.139
Stream size : 3.61 GiB (82%)
Title : Rip by Boriy
Writing library : x264 core 125 r2208 d9d2288
Encoding settings : cabac=1 / ref=4 / deblock=1:0:0 / analyse=0x3:0x113 / me=umh / subme=10 / psy=1 / psy_rd=1.00:0.10 / mixed_ref=1 / me_range=32 / chroma_me=1 / trellis=2 / 8x8dct=1 / cqm=0 / deadzone=21,11 / fast_pskip=0 / chroma_qp_offset=-3 / threads=12 / lookahead_threads=2 / sliced_threads=0 / nr=0 / decimate=0 / interlaced=0 / bluray_compat=0 / constrained_intra=0 / bframes=5 / b_pyramid=2 / b_adapt=2 / b_bias=0 / direct=3 / weightb=1 / open_gop=0 / weightp=2 / keyint=240 / keyint_min=23 / scenecut=40 / intra_refresh=0 / rc_lookahead=60 / rc=2pass / mbtree=1 / bitrate=6935 / ratetol=1.0 / qcomp=0.60 / qpmin=0 / qpmax=69 / qpstep=4 / cplxblur=20.0 / qblur=0.5 / ip_ratio=1.40 / aq=1:1.00
Language : English
Default : Yes
Forced : No

Audio #1
ID : 2
Format : AC-3
Format/Info : Audio Coding 3
Mode extension : CM (complete main)
Format settings, Endianness : Big
Codec ID : A_AC3
Duration : 1h 16mn
Bit rate mode : Constant
Bit rate : 640 Kbps
Channel(s) : 6 channels
Channel positions : Front: L C R, Side: L R, LFE
Sampling rate : 48.0 KHz
Bit depth : 16 bits
Compression mode : Lossy
Stream size : 349 MiB (8%)
Title : Дубляж
Language : Russian
Default : Yes
Forced : No

Audio #2
ID : 3
Format : AC-3
Format/Info : Audio Coding 3
Mode extension : CM (complete main)
Format settings, Endianness : Big
Codec ID : A_AC3
Duration : 1h 16mn
Bit rate mode : Constant
Bit rate : 640 Kbps
Channel(s) : 6 channels
Channel positions : Front: L C R, Side: L R, LFE
Sampling rate : 48.0 KHz
Bit depth : 16 bits
Compression mode : Lossy
Stream size : 349 MiB (8%)
Title : Оригинал
Language : English
Default : No
Forced : No

Text #1
ID : 4
Format : UTF-8
Codec ID : S_TEXT/UTF8
Codec ID/Info : UTF-8 Plain Text
Language : Russian
Default : No
Forced : No

Text #2
ID : 5
Format : UTF-8
Codec ID : S_TEXT/UTF8
Codec ID/Info : UTF-8 Plain Text
Language : English
Default : No
Forced : No

Menu
00:00:00.000 : :Chapter 1
00:02:28.815 : :Chapter 2
00:05:32.832 : :Chapter 3
00:08:23.211 : :Chapter 4
00:11:19.929 : :Chapter 5
00:13:50.204 : :Chapter 6
00:14:58.439 : :Chapter 7
00:16:56.140 : :Chapter 8
00:19:47.770 : :Chapter 9
00:24:08.072 : :Chapter 10
00:25:34.825 : :Chapter 11
00:27:14.258 : :Chapter 12
00:30:01.591 : :Chapter 13
00:34:05.335 : :Chapter 14
00:36:57.090 : :Chapter 15
00:39:05.176 : :Chapter 16
00:42:25.418 : :Chapter 17
00:44:38.426 : :Chapter 18
00:48:10.012 : :Chapter 19
00:48:40.459 : :Chapter 20
00:49:50.154 : :Chapter 21
00:51:49.606 : :Chapter 22
00:55:15.312 : :Chapter 23
00:57:59.351 : :Chapter 24
01:02:54.270 : :Chapter 25
01:03:46.740 : :Chapter 26
01:08:10.336 : :Chapter 27
01:09:49.560 : :Chapter 28
01:13:18.603 : :Chapter 29



   Похожие торренты   Торрент   Размер 
В этой теме нет новых непрочитанных сообщений. Не бей копытом / Home on the Range (2004) BDRip-AVC от 0ptimus | D, P, P2, A

55 | 6

2.58 ГБ

В этой теме нет новых непрочитанных сообщений. Не бей копытом / Home on the Range (2004) BDRip от HQCLUB

74 | 3

1.45 ГБ

В этой теме нет новых непрочитанных сообщений. Не бей копытом / Home on the Range (2004) BDRip-AVC от 0ptimus | D, P, P2, A

4 | 1

2.58 ГБ

В этой теме нет новых непрочитанных сообщений. Не бей копытом / Home on the Range (2004) BDRip 720p от HDClub | D, P, P2, A

36 | 6

4.24 ГБ

В этой теме нет новых непрочитанных сообщений. Не бей копытом / Home on the Range (2004) HDTVRip-AVC от R.G. AVI | AVC

30 | 3

1.46 ГБ

В этой теме нет новых непрочитанных сообщений. Не бей копытом / Home On The Range (2004) DVDRip

111 | 2

1.37 ГБ

В этой теме нет новых непрочитанных сообщений. Не бей копытом / Ферма в прериях / Home on the Range (2004) HDTV 1080i

0 | 2

5.39 ГБ




Вы не можете начинать темы
Вы не можете отвечать на сообщения
Вы не можете редактировать свои сообщения
Вы не можете удалять свои сообщения
Вы не можете добавлять вложения

Перейти:  
Для Мосгорсуда, Роскомнадзора и рекламодателей: mosgorsud-torrent[собачка]yandex.ru
 Вход
ppkBB3cker v.2 © 2008-2014 @ PPK
[ Time : 2.077s | 14 Queries | GZIP : On ]

Торрент трекер RUTOR.IN, Не можете зайти на rutor.org? Какой новый адрес рутор? Какое зеркало рутор? Не работает rutor.org и зеркала? Тогда наш торрент специально для вас. Rutor.in неофициальное зеркало rutor. В случае если у Вас заблокирован rutor или вдруг Вы не можете на него зайти, то Вы без труда сможете скачать бесплатно и без рекламы последние новинки кино, игр, сериалов и прочего у нас, на Rutor.in. Не нужно использовать прокси, чтобы зайти на рутор, достаточно воспользоваться нашим ресурсом. Все новые фильмы, игры, сериалы, книги и музыка за 2013 и 2014 годы через торрент бесплатно. Скачивайте фильмы в хорошем качестве, игры для пк, xbox, playstation без регистрации. У нас вы найдете новые Зарубежные сериалы и Русские сериалы 2013, 2014, 2015 годов. Оставайтесь с нами, качайте любимые фильмы, игры, сериалы, книги и музыку.