img image001 image001 image001 image001 image001 image001 image001 image001 image001 image001 image001 image001 image001 image001 image001 image001

Planets Sun Sun Sun
Статистика раздачи
Автор: Снежана | Размер: 262.51 МБ | Добавлен: 27 июл 2013
Раздают: 45    Качают: 6
Скачать торрент
Скачать торрент
Описание торрента

СообщениеДобавлено: 27 июл 2013 

#77


Информация о фильме
Название: Белка: Не время для орехов: Не время для орехов
Оригинальное название: No Time For Nuts
Год выхода: 2006
Жанр: мультфильм, короткометражка, комедия, приключения, семейный
Режиссер: Крис Рено, Майк Трумейер
О фильме:
Белка находит машину времени и случайно отправляет в другое время жёлудь, также случайно отправляет себе в другое время, в догонку за жёлудем. Мультфильм номинирован на премию "Оскар-2007" в номинации "Лучший короткометражный фильм".


Страна: США
Студия: Blue Sky Studios
Продолжительность: 00:07:07
Перевод: не требуется

Файл
Кодек: H.264
Качество: BDRip 720p
Видео: 1280x720 (16:9), 23.976 fps, AVC, 4 420 Kbps
Звук: DTS, 755 Kbps, 48.0 KHz, 6 ch
Общее
Уникальный идентификатор : 180104607196268188764477064235584220365 (0x877EE2B77A278E809875660000FA6CCD)
Полное имя : E:торрентScrat No Time For Nuts 2006 BluRay 720p DTS x264Scrat No Time For Nuts 2006 BluRay 720p.mkv
Формат : Matroska
Версия формата : Version 2
Размер файла : 263 Мбайт
Продолжительность : 7 м. 7 с.
Общий поток : 5149 Кбит/сек
Название фильма : Scrat No Time For Nuts By 3Li
Дата кодирования : UTC 2012-07-28 05:03:40
Программа кодирования : mkvmerge v5.6.0 ('Kenya Kane') built on May 27 2012 16:44:04
Библиотека кодирования : libebml v1.2.3 + libmatroska v1.3.0

Видео
Идентификатор : 1
Формат : AVC
Формат/Информация : Advanced Video Codec
Профиль формата : High@L4.1
Параметр CABAC формата : Да
Параметр ReFrames формата : 5 кадров
Идентификатор кодека : V_MPEG4/ISO/AVC
Продолжительность : 7 м. 7 с.
Битрейт : 4420 Кбит/сек
Ширина : 1280 пикселей
Высота : 720 пикселей
Соотношение сторон : 16:9
Частота кадров : 23,976 кадра/сек
Цветовое пространство : YUV
Субдискретизация насыщенности : 4:2:0
Битовая глубина : 8 бит
Тип развёртки : Прогрессивная
Бит/(Пиксели*Кадры) : 0.200
Размер потока : 219 Мбайт (83%)
Заголовок : Scrat No Time For Nuts By 3Li
Библиотека кодирования : x264 core 125 r2200 999b753
Настройки программы : cabac=1 / ref=5 / deblock=1:-3:-3 / analyse=0x3:0x113 / me=umh / subme=9 / psy=1 / psy_rd=0.80:0.00 / mixed_ref=1 / me_range=24 / chroma_me=1 / trellis=1 / 8x8dct=1 / cqm=0 / deadzone=21,11 / fast_pskip=0 / chroma_qp_offset=-2 / threads=3 / lookahead_threads=1 / sliced_threads=0 / nr=0 / decimate=0 / interlaced=0 / bluray_compat=0 / constrained_intra=0 / bframes=3 / b_pyramid=2 / b_adapt=2 / b_bias=0 / direct=1 / weightb=1 / open_gop=0 / weightp=2 / keyint=240 / keyint_min=23 / scenecut=40 / intra_refresh=0 / rc_lookahead=40 / rc=2pass / mbtree=1 / bitrate=4420 / ratetol=1.0 / qcomp=0.60 / qpmin=10 / qpmax=51 / qpstep=4 / cplxblur=20.0 / qblur=0.5 / ip_ratio=1.40 / aq=1:1.00
Язык : English
Default : Да
Forced : Нет

Аудио
Идентификатор : 2
Формат : DTS
Формат/Информация : Digital Theater Systems
Идентификатор кодека : A_DTS
Продолжительность : 7 м. 7 с.
Вид битрейта : Постоянный
Битрейт : 755 Кбит/сек
Каналы : 6 каналов
Расположение каналов : Front: L C R, Side: L R, LFE
Частота : 48,0 КГц
Битовая глубина : 24 бит
Метод сжатия : С потерями
Размер потока : 38,5 Мбайт (15%)
Заголовок : Scrat No Time For Nuts By 3Li
Язык : English
Default : Да
Forced : Нет




   Похожие торренты   Торрент   Размер 
В этой теме нет новых непрочитанных сообщений. Александр Орехов - Саша Орехов поёт подъездные, блатные и русские песни (1995) MP3

36 | 8

128.29 МБ

В этой теме нет новых непрочитанных сообщений. Совершенно чокнутый / Mixed Nuts (1994) WEB-DL 720p от Koenig | P

32 | 6

2.98 ГБ

В этой теме нет новых непрочитанных сообщений. Орехи и Грабители / Nuts & Robbers (2014) BDRip 720 от SuperMin

523 | 25

130.5 МБ

В этой теме нет новых непрочитанных сообщений. Путешествие в машине времени / Time After Time (1979) BDRip 720p by msltel | P, P2, A

7 | 2

4.29 ГБ

В этой теме нет новых непрочитанных сообщений. Из времени во время / From Time to Time (2009) BDRip 720p by msltel | P2

43 | 3

3.09 ГБ

В этой теме нет новых непрочитанных сообщений. Космическая Скратастрофа / Cosmic Scrat-tastrophe (2015) WebRip 720p | D

1346 | 35

62.92 МБ

В этой теме нет новых непрочитанных сообщений. Реальная белка / The Nut Job (2014) BDRip 720p | Лицензия

894 | 57

2.91 ГБ




Вы не можете начинать темы
Вы не можете отвечать на сообщения
Вы не можете редактировать свои сообщения
Вы не можете удалять свои сообщения
Вы не можете добавлять вложения

Перейти:  
 Вход
ppkBB3cker v.2 © 2008-2014 @ PPK
[ Time : 0.087s | 15 Queries | GZIP : Off ]

cron