img image001 image001 image001 image001 image001 image001 image001 image001 image001 image001 image001 image001 image001 image001 image001

Planets Sun Sun Sun
Статистика раздачи
Автор: Снежана | Размер: 144.1 МБ | Добавлен: 27 июл 2013
Раздают: 2    Качают: 2
Скачать торрент
Скачать торрент
Описание торрента

СообщениеДобавлено: 27 июл 2013 

#77

Информация о фильме
Название: Искусство падения
Оригинальное название: Sztuka spadania / Fallen Art
Год выхода: 2004
Жанр: мультфильм, короткометражка, комедия
Режиссер: Томек Багински
В ролях: Аркадиуш Якубик, Марчин Куделька, Дариуш Тоцек

О фильме:
На старой забытой военной базе в Тихом Океане собраны солдаты. Потерявшие рассудок, усталые от сражений, они приехали сюда для выполнения своего последнего задания.
Жестокая короткометражка про генерала, решившего замутить видеоклип с участием своих солдат.


Страна: Польша
Студия: Platige Image
Продолжительность: 00:06:00
Перевод: не требуется

Файл
Кодек: MKV, H.264
Качество: HDRip-AVC
Видео: h264 (High), yuv420p, 1024x576 [PAR 1:1 DAR 16:9], 3036 kbps, 24 fps, 24 tbr, 1k tbn, 48 tbc
Звук: mp3, 48000 Hz, stereo, s16, 320 kb/s
General
Unique ID : 217613903892084681462252887861624274564 (0xA3B6E9D368664CD0877186BBDA377E84)
Complete name : /mnt/disk_d/Video/Мультфильмы/Fallen Art (2004).mkv
Format : Matroska
File size : 144 MiB
Duration : 6mn 0s
Overall bit rate : 3 358 Kbps
Encoded date : UTC 2009-09-14 01:22:34
Writing application : mkvmerge v2.9.0 ('Moanin'') built on May 22 2009 17:46:31
Writing library : libebml v0.7.7 + libmatroska v0.8.1

Video
ID : 1
Format : AVC
Format/Info : Advanced Video Codec
Format profile : High@L3.2
Format settings, CABAC : Yes
Format settings, ReFrames : 8 frames
Codec ID : V_MPEG4/ISO/AVC
Duration : 6mn 0s
Bit rate : 3 036 Kbps
Width : 1 024 pixels
Height : 576 pixels
Display aspect ratio : 16:9
Frame rate : 24.000 fps
Color space : YUV
Chroma subsampling : 4:2:0
Bit depth : 8 bits
Scan type : Progressive
Bits/(Pixel*Frame) : 0.214
Stream size : 127 MiB (88%)
Title : Fallen Art (2004) [HDrip-AVC by Captain-Canuck]
Writing library : x264 core 65 r999kMod cc51047
Encoding settings : cabac=1 / ref=8 / deblock=1:0:0 / analyse=0x3:0x133 / me=hex / subme=6 / psy_rd=1.0:0.0 / mixed_ref=1 / me_range=16 / chroma_me=1 / trellis=1 / 8x8dct=1 / cqm=0 / deadzone=21,11 / chroma_qp_offset=-2 / threads=1 / thread_queue=1 / nr=0 / decimate=1 / mbaff=0 / bframes=3 / b_pyramid=0 / b_adapt=1 / b_bias=0 / direct=1 / wpredb=1 / keyint=250 / keyint_min=25 / scenecut=40 / rc=2pass / bitrate=3036 / ratetol=1.0 / qcomp=0.60 / qpmin=10 / qpmax=51 / qpstep=4 / cplxblur=20.0 / qblur=0.5 / ip_ratio=1.40 / pb_ratio=1.30 / aq=1:1.00
Language : English

Audio
ID : 2
Format : MPEG Audio
Format version : Version 1
Format profile : Layer 3
Mode : Joint stereo
Codec ID : A_MPEG/L3
Codec ID/Hint : MP3
Duration : 6mn 0s
Bit rate mode : Constant
Bit rate : 320 Kbps
Channel(s) : 2 channels
Sampling rate : 48.0 KHz
Compression mode : Lossy
Stream size : 13.7 MiB (10%)
Title : MP3 320 kbps
Language : English



   Похожие торренты   Торрент   Размер 
В этой теме нет новых непрочитанных сообщений. Искусство падения / Sztuka spadania / Fallen Art (2004) HDTVRip 1080p

2 | 1

1016.87 МБ

В этой теме нет новых непрочитанных сообщений. Искусство падения / Fallen Art (2004) HDTVRip

3 | 2

199.04 МБ

В этой теме нет новых непрочитанных сообщений. Павшие / The Fallen (2004) DVDRip

0 | 2

1.37 ГБ

В этой теме нет новых непрочитанных сообщений. Павшие / The Fallen (2004) DVDRip от ExKinoRay | P

48 | 8

1.45 ГБ

В этой теме нет новых непрочитанных сообщений. Искусство терять / Perder es cuestión de método (2004) DVDRip | P2

70 | 16

1.46 ГБ

В этой теме нет новых непрочитанных сообщений. Дьявольское искусство / Art of the devil / Khon len khong (2004) DVDRip

3 | 6

881.55 МБ

В этой теме нет новых непрочитанных сообщений. Искусство умирать / Искусство смерти / The Art of Dying (1991) DVDRip | A

9 | 5

1.45 ГБ




Вы не можете начинать темы
Вы не можете отвечать на сообщения
Вы не можете редактировать свои сообщения
Вы не можете удалять свои сообщения
Вы не можете добавлять вложения

Перейти:  
Для Мосгорсуда, Роскомнадзора и рекламодателей: mosgorsud-torrent[собачка]yandex.ru
 Вход
ppkBB3cker v.2 © 2008-2014 @ PPK
[ Time : 2.398s | 14 Queries | GZIP : Off ]

Торрент трекер RUTOR.IN, Не можете зайти на rutor.org? Какой новый адрес рутор? Какое зеркало рутор? Не работает rutor.org и зеркала? Тогда наш торрент специально для вас. Rutor.in неофициальное зеркало rutor. В случае если у Вас заблокирован rutor или вдруг Вы не можете на него зайти, то Вы без труда сможете скачать бесплатно и без рекламы последние новинки кино, игр, сериалов и прочего у нас, на Rutor.in. Не нужно использовать прокси, чтобы зайти на рутор, достаточно воспользоваться нашим ресурсом. Все новые фильмы, игры, сериалы, книги и музыка за 2013 и 2014 годы через торрент бесплатно. Скачивайте фильмы в хорошем качестве, игры для пк, xbox, playstation без регистрации. У нас вы найдете новые Зарубежные сериалы и Русские сериалы 2013, 2014, 2015 годов. Оставайтесь с нами, качайте любимые фильмы, игры, сериалы, книги и музыку.