img image001 image001 image001 image001 image001 image001 image001 image001 image001 image001 image001 image001 image001 image001 image001

Planets Sun Sun Sun
Статистика раздачи
Автор: Снежана | Размер: 747.5 МБ | Добавлен: 27 июл 2013
Раздают: 144    Качают: 6
Скачать торрент
Скачать торрент
Описание торрента

СообщениеДобавлено: 27 июл 2013 

#77

Информация о фильме
Название: Элвин и бурундуки встречают Франкенштейна
Оригинальное название: Alvin and the Chipmunks Meet Frankenstein
Год выхода: 1999
Жанр: мультфильм, ужасы, комедия, семейный
Режиссер: Кэти Кастилло / Kathi Castillo
В ролях: Росс Багдасарян мл., Дженис Карман, Майкл Белл, Джим Мескимен, Фрэнк Уэлкер, Ди Брэдли Бейкер, Мэри Кэй Бергман, Сьюзэн Бойд, Кевин Майкл Ричардсон

О фильме:
Веселые бурундучки устраиваются работать в парк аттракционов артистами. Элвин хочет чтобы между представлениями они побродили по парку ужасов. После поездки они заблудились и их запирают в парке. Оказывается директор парка нанял реального Франкенштейна, который создал свое детище. Но полученный монстр оказался очень добрым и сразу же подружился с бурундуками. Но на этом все опыты доктора должны быть остановлены.

Страна: США
Продолжительность: 01:14:53
Перевод: Профессиональный (дублированный) СТС, 2011 г.

Файл
Кодек: XviD / MP3
Качество: DVDRip
Видео: XviD, 592x432 (1.37:1), 25 fps, ~1257 kbps avg, 0.20 bit/pixel
Звук: MP3, 48 kHz, 2 ch, ~128.00 kbps avg | Дубляж СТС

General
Complete name : Alvin and the Chipmunks Meet Frankenstein.1999.DUB.CTC.avi
Format : AVI
Format/Info : Audio Video Interleave
File size : 748 MiB
Duration : 1h 14mn
Overall bit rate : 1 395 Kbps
Movie name : Alvin and the Chipmunks Meet Frankenstein
Director : Kathi Castillo
Writing application : VirtualDubMod 1.5.10.2 (build 2542/release)

Video
ID : 0
Format : MPEG-4 Visual
Format profile : Advanced Simple@L5
Format settings, BVOP : 2
Format settings, QPel : No
Format settings, GMC : No warppoints
Format settings, Matrix : Custom
Codec ID : XVID
Codec ID/Hint : XviD
Duration : 1h 14mn
Bit rate : 1 258 Kbps
Width : 592 pixels
Height : 432 pixels
Display aspect ratio : 4:3
Original display aspect ratio : 1.370
Frame rate : 25.000 fps
Color space : YUV
Chroma subsampling : 4:2:0
Bit depth : 8 bits
Scan type : Progressive
Compression mode : Lossy
Bits/(Pixel*Frame) : 0.197
Stream size : 674 MiB (90%)
Writing library : XviD 65

Audio
ID : 1
Format : MPEG Audio
Format version : Version 1
Format profile : Layer 3
Codec ID : 55
Codec ID/Hint : MP3
Duration : 1h 14mn
Bit rate mode : Constant
Bit rate : 128 Kbps
Channel(s) : 2 channels
Sampling rate : 48.0 KHz
Compression mode : Lossy
Stream size : 68.6 MiB (9%)
Alignment : Aligned on interleaves
Interleave, duration : 40 ms (1.00 video frame)
Interleave, preload duration : 504 ms



   Похожие торренты   Торрент   Размер 
В этой теме нет новых непрочитанных сообщений. Элвин и бурундуки встречают Франкенштейна / Alvin and the Chipmunks Meet Frankenstein (1999) DVDRip

42 | 4

1.46 ГБ

В этой теме нет новых непрочитанных сообщений. Элвин и бурундуки встречают Франкенштейна / Alvin and the Chipmunks Meet Frankenstein (1999) DVDRip от Stranik 2.0

4 | 3

904.88 МБ

В этой теме нет новых непрочитанных сообщений. Элвин и бурундуки встречают оборотня / Alvin and the Chipmunks Meet the Wolfman (2000) DVDRip

83 | 9

1.47 ГБ

В этой теме нет новых непрочитанных сообщений. Элвин и бурундуки встречают оборотня / Alvin and the Chipmunks Meet the Wolfman (2000) DVDRip от Stranik 2.0

51 | 6

904.37 МБ

В этой теме нет новых непрочитанных сообщений. OST - Элвин и бурундуки / Alvin and The Chipmunks - The Chipmunks See Doctor Dolittle (1968) MP3 от Stranik 2.0

0 | 2

23.79 МБ

В этой теме нет новых непрочитанных сообщений. Элвин и бурундуки 2 / Alvin and the Chipmunks The Squeakquel (2009) DVDRip от RP4 CHG

21 | 7

701.63 МБ

В этой теме нет новых непрочитанных сообщений. Элвин и бурундуки 2 / Alvin and the Chipmunks: The Squeakquel (2009) DVDRip

0 | 1

1.37 ГБ




Вы не можете начинать темы
Вы не можете отвечать на сообщения
Вы не можете редактировать свои сообщения
Вы не можете удалять свои сообщения
Вы не можете добавлять вложения

Перейти:  
Для Мосгорсуда, Роскомнадзора и рекламодателей: mosgorsud-torrent[собачка]yandex.ru
 Вход
ppkBB3cker v.2 © 2008-2014 @ PPK
[ Time : 0.104s | 15 Queries | GZIP : Off ]

Торрент трекер RUTOR.IN, Не можете зайти на rutor.org? Какой новый адрес рутор? Какое зеркало рутор? Не работает rutor.org и зеркала? Тогда наш торрент специально для вас. Rutor.in неофициальное зеркало rutor. В случае если у Вас заблокирован rutor или вдруг Вы не можете на него зайти, то Вы без труда сможете скачать бесплатно и без рекламы последние новинки кино, игр, сериалов и прочего у нас, на Rutor.in. Не нужно использовать прокси, чтобы зайти на рутор, достаточно воспользоваться нашим ресурсом. Все новые фильмы, игры, сериалы, книги и музыка за 2013 и 2014 годы через торрент бесплатно. Скачивайте фильмы в хорошем качестве, игры для пк, xbox, playstation без регистрации. У нас вы найдете новые Зарубежные сериалы и Русские сериалы 2013, 2014, 2015 годов. Оставайтесь с нами, качайте любимые фильмы, игры, сериалы, книги и музыку.