img image001 image001 image001 image001 image001 image001 image001 image001 image001 image001 image001 image001 image001 image001 image001

Planets Sun Sun Sun
Статистика раздачи
Автор: Снежана | Размер: 5.16 ГБ | Добавлен: 27 июл 2013
Раздают: 16    Качают: 3
Скачать торрент
Скачать торрент
Описание торрента

СообщениеДобавлено: 27 июл 2013 

#77


Информация о фильме

Название: Побег Из Курятника
Оригинальное название: Chicken Run
Год выпуска: 2000
Жанр: Комедия, семейный
Режиссёр: Питер Лорд, Ник Парк
Роли озвучивали: Фил Дэниелс, Линн Фергюсон, Мэл Гибсон, Тони Хейгарт, Джейн Хоррокс, Миранда Ричардсон, Джулия Савалия, Тимоти Сполл, Имелда Стонтон, Бенжамин Уитроу

Описание

Курочкам на ферме миссис Туиди приходится не легко. Для каждой из этих несчастных птиц любое, даже самое погожее утро, может стать последним: в мгновение ока они могут угодить в суп или стать начинкой для пирожка.
Безропотные домашние птички живут в постоянном страхе в ужасных курятниках, напоминающих бараки концлагеря. Все попытки вырваться из страшной фермы на волю оканчиваются провалом. Но однажды на ферме объявился веселый американский петух Рокки…



Автор рипа mitrian

Сэмпл

Дополнительно

Продолжительность: 01:24:36
Перевод: Д. Пучков "Гоблин"
Выпущено: Великобритания

Файл

Качество: BDRip 1080p (Исходник Blu-ray)
Видео: 1920x1080 , 7025 Кбит/сек, 24.000 кадр/сек, AVC, x264, 2,40:1, 0.141 Бит/(Пиксели*Кадры)
Аудио: AC-3, 384 Кбит/сек, 6 канала(ов), 48,0 КГц
Размер: 4,37 ГБ

Отдельно

Аудио: AC-3, 192 Кбит/сек, 2 канала(ов), 48,0 КГц Дубляж, ОРТ
Аудио: AC-3, 384 Кбит/сек, 6 канала(ов), 48,0 КГц Гланц & Назарова
Аудио: AC-3, 384 Кбит/сек, 6 канала(ов), 48,0 КГц многоголосый закадровый, Премьер-видео
Аудио: AC-3, 384 Кбит/сек, 6 канала(ов), 48,0 КГц Английский



Format : Matroska
Format version : Version 2
File size : 4.37 GiB
Duration : 1h 24mn
Overall bit rate : 7 405 Kbps
Movie name : Rip by mitrian (NOLIMITS-TEAM.RU)
Encoded date : UTC 2012-08-10 12:25:09
Writing application : mkvmerge v5.7.0 ('The Whirlwind') built on Jul 8 2012 20:08:51
Writing library : libebml v1.2.3 + libmatroska v1.3.0

Video
ID : 1
Format : AVC
Format/Info : Advanced Video Codec
Format profile : High@L4.1
Format settings, CABAC : Yes
Format settings, ReFrames : 4 frames
Codec ID : V_MPEG4/ISO/AVC
Duration : 1h 24mn
Bit rate : 7 025 Kbps
Width : 1 920 pixels
Height : 1 080 pixels
Display aspect ratio : 16:9
Frame rate : 24.000 fps
Color space : YUV
Chroma subsampling : 4:2:0
Bit depth : 8 bits
Scan type : Progressive
Bits/(Pixel*Frame) : 0.141
Stream size : 4.06 GiB (93%)
Title : Побег из курятника (2000) BDRip 1080p от NOLIMITS-TEAM
Writing library : x264 core 124 r2197 69a0443
Encoding settings : cabac=1 / ref=4 / deblock=1:-3:-2 / analyse=0x3:0x113 / me=umh / subme=10 / psy=1 / psy_rd=1.00:0.10 / mixed_ref=1 / me_range=32 / chroma_me=1 / trellis=2 / 8x8dct=1 / cqm=0 / deadzone=21,11 / fast_pskip=0 / chroma_qp_offset=-3 / threads=6 / sliced_threads=0 / slices=4 / nr=0 / decimate=0 / interlaced=0 / bluray_compat=0 / constrained_intra=0 / bframes=5 / b_pyramid=2 / b_adapt=2 / b_bias=0 / direct=3 / weightb=1 / open_gop=0 / weightp=2 / keyint=240 / keyint_min=24 / scenecut=40 / intra_refresh=0 / rc_lookahead=60 / rc=2pass / mbtree=1 / bitrate=7025 / ratetol=2.0 / qcomp=0.60 / qpmin=0 / qpmax=51 / qpstep=4 / cplxblur=20.0 / qblur=0.5 / ip_ratio=1.40 / aq=1:1.00
Language : English
Default : Yes
Forced : No

Audio
ID : 2
Format : AC-3
Format/Info : Audio Coding 3
Mode extension : CM (complete main)
Codec ID : A_AC3
Duration : 1h 24mn
Bit rate mode : Constant
Bit rate : 384 Kbps
Channel(s) : 6 channels
Channel positions : Front: L C R, Side: L R, LFE
Sampling rate : 48.0 KHz
Bit depth : 16 bits
Compression mode : Lossy
Stream size : 232 MiB (5%)
Title : Русский
Default : Yes
Forced : No

Menu
00:00:00.000 : en:00:00:00.000
00:09:00.000 : en:00:09:00.000
00:19:00.000 : en:00:19:00.000
00:32:00.000 : en:00:32:00.000
00:39:00.000 : en:00:39:00.000
00:49:00.000 : en:00:49:00.000
00:59:00.000 : en:00:59:00.000
01:08:00.000 : en:01:08:00.000
01:18:00.000 : en:01:18:00.000
01:23:00.000 : en:01:23:00.000



   Похожие торренты   Торрент   Размер 
В этой теме нет новых непрочитанных сообщений. Побег из курятника / Chicken Run (2000) BDRip 1080p

5 | 2

7.44 ГБ

В этой теме нет новых непрочитанных сообщений. Побег из курятника / Chicken Run (2000) BDRip 1080p | 60 fps | D

44 | 34

8.61 ГБ

В этой теме нет новых непрочитанных сообщений. Побег из курятника / Chicken Run (2000) BDRip 1080p от MediaClub

17 | 6

7.87 ГБ

В этой теме нет новых непрочитанных сообщений. Побег из курятника / Chicken Run (2000) BDRip-AVC от NovaLan

31 | 7

2.25 ГБ

В этой теме нет новых непрочитанных сообщений. Побег из курятника / Chicken Run (2000) BDRip от HQCLUB

282 | 16

1.45 ГБ

В этой теме нет новых непрочитанных сообщений. Побег из курятника / Chicken Run (2000) BDRip от HQ-ViDEO | P, D, A

303 | 24

1.46 ГБ

В этой теме нет новых непрочитанных сообщений. Побег из курятника / Chicken Run (2000) BDRip 720p от MediaClub

30 | 7

5.71 ГБ




Вы не можете начинать темы
Вы не можете отвечать на сообщения
Вы не можете редактировать свои сообщения
Вы не можете удалять свои сообщения
Вы не можете добавлять вложения

Перейти:  
Для Мосгорсуда, Роскомнадзора и рекламодателей: mosgorsud-torrent[собачка]yandex.ru
 Вход
ppkBB3cker v.2 © 2008-2014 @ PPK
[ Time : 0.039s | 17 Queries | GZIP : Off ]

Торрент трекер RUTOR.IN, Не можете зайти на rutor.org? Какой новый адрес рутор? Какое зеркало рутор? Не работает rutor.org и зеркала? Тогда наш торрент специально для вас. Rutor.in неофициальное зеркало rutor. В случае если у Вас заблокирован rutor или вдруг Вы не можете на него зайти, то Вы без труда сможете скачать бесплатно и без рекламы последние новинки кино, игр, сериалов и прочего у нас, на Rutor.in. Не нужно использовать прокси, чтобы зайти на рутор, достаточно воспользоваться нашим ресурсом. Все новые фильмы, игры, сериалы, книги и музыка за 2013 и 2014 годы через торрент бесплатно. Скачивайте фильмы в хорошем качестве, игры для пк, xbox, playstation без регистрации. У нас вы найдете новые Зарубежные сериалы и Русские сериалы 2013, 2014, 2015 годов. Оставайтесь с нами, качайте любимые фильмы, игры, сериалы, книги и музыку.
cron