img image001 image001 image001 image001 image001 image001 image001 image001 image001 image001 image001 image001 image001 image001 image001

Planets Sun Sun Sun
Статистика раздачи
Автор: Снежана | Размер: 99.82 МБ | Добавлен: 27 июл 2013
Раздают: 2    Качают: 3
Скачать торрент
Скачать торрент
Описание торрента

СообщениеДобавлено: 27 июл 2013 

#77

Страна: Россия
Жанр: Мультфильм
Продолжительность: 00:06:59
Год выпуска: 2008
Перевод: Не требуется
Русские субтитры: нет

Режиссёр: Нина Бисярина

Описание: Три дня в поезде по дороге к мечте. Девочка отправляется с бабушкой из дождливого города к морю, которое лучезарно сияет с цветной открытки, — поэтичная история складывается из самых обыкновенных вещей. Дрожат стаканы в подстаканниках, трепещут занавески в коридоре, мелькают за окном столбы и плюшевые игрушки станционных торговцев — и оживают фантазии о близкой мечте: плещутся на столике золотые рыбки, а светящиеся многоэтажки за окном превращаются в огромный теплоход, плывущий по темным волнам. И ничего, что море в конце путешествия оказывается дождливым, как пункт отправления, — зато оно настоящее.

Качество: DVDRip
Формат: AVI
Видео: XviD, 1794 Кбит/с, 720x400 (16:9), 25 кадр/с
Аудио: Dolby AC3 48000 Гц, 2 канала (Стерео), 192 Кбит/с
Субтитры: Английские (Вшитые)



Автор рипа - ivandubskoj

Код:
General
Complete name                    : Poezdka.K.Moriu.2008.XviD.DVDRip.avi
Format                           : AVI
Format/Info                      : Audio Video Interleave
File size                        : 99.8 MiB
Duration                         : 7mn 0s
Overall bit rate                 : 1 994 Kbps
Writing application              : VirtualDubMod 1.5.10.3 (build 2550/release)
Writing library                  : VirtualDubMod build 2550/release

Video
ID                               : 0
Format                           : MPEG-4 Visual
Format profile                   : Advanced Simple@L5
Format settings, BVOP            : 1
Format settings, QPel            : No
Format settings, GMC             : No warppoints
Format settings, Matrix          : Default (MPEG)
Codec ID                         : XVID
Codec ID/Hint                    : XviD
Duration                         : 7mn 0s
Bit rate                         : 1 794 Kbps
Width                            : 720 pixels
Height                           : 400 pixels
Display aspect ratio             : 16:9
Frame rate                       : 25.000 fps
Color space                      : YUV
Chroma subsampling               : 4:2:0
Bit depth                        : 8 bits
Scan type                        : Progressive
Compression mode                 : Lossy
Bits/(Pixel*Frame)               : 0.249
Stream size                      : 89.8 MiB (90%)
Writing library                  : XviD 1.2.1 (UTC 2008-12-04)

Audio
ID                               : 1
Format                           : AC-3
Format/Info                      : Audio Coding 3
Mode extension                   : CM (complete main)
Codec ID                         : 2000
Duration                         : 7mn 0s
Bit rate mode                    : Constant
Bit rate                         : 192 Kbps
Channel(s)                       : 2 channels
Channel positions                : Front: L R
Sampling rate                    : 48.0 KHz
Bit depth                        : 16 bits
Compression mode                 : Lossy
Stream size                      : 9.61 MiB (10%)
Alignment                        : Split accross interleaves
Interleave, duration             : 64 ms (1.60 video frames)
Interleave, preload duration     : 500 ms





   Похожие торренты   Торрент   Размер 
В этой теме нет новых непрочитанных сообщений. Поездка к морю (2008) DVDRip от ivandubskoj

15 | 2

105.1 МБ

В этой теме нет новых непрочитанных сообщений. Поездка к морю (2008) DVDRip от ivandubskoj

19 | 2

115.13 МБ

В этой теме нет новых непрочитанных сообщений. Летняя поездка к морю (1978) DVDRip от Кинорадиомагия

88 | 54

1.35 ГБ

В этой теме нет новых непрочитанных сообщений. Снежный ангел (2008) DVDRip от ivandubskoj

121 | 11

1.46 ГБ

В этой теме нет новых непрочитанных сообщений. Не родись красивым (2008) DVDRip от ivandubskoj

43 | 6

1.46 ГБ

В этой теме нет новых непрочитанных сообщений. Снежный ангел (2008) DVDRip от ivandubskoj

24 | 5

746.69 МБ

В этой теме нет новых непрочитанных сообщений. 80 минут / 80 Minutes (2008) DVDRip от ivandubskoj | P2

42 | 32

703.56 МБ




Вы не можете начинать темы
Вы не можете отвечать на сообщения
Вы не можете редактировать свои сообщения
Вы не можете удалять свои сообщения
Вы не можете добавлять вложения

Перейти:  
Для Мосгорсуда, Роскомнадзора и рекламодателей: mosgorsud-torrent[собачка]yandex.ru
 Вход
ppkBB3cker v.2 © 2008-2014 @ PPK
[ Time : 0.064s | 14 Queries | GZIP : On ]

Торрент трекер RUTOR.IN, Не можете зайти на rutor.org? Какой новый адрес рутор? Какое зеркало рутор? Не работает rutor.org и зеркала? Тогда наш торрент специально для вас. Rutor.in неофициальное зеркало rutor. В случае если у Вас заблокирован rutor или вдруг Вы не можете на него зайти, то Вы без труда сможете скачать бесплатно и без рекламы последние новинки кино, игр, сериалов и прочего у нас, на Rutor.in. Не нужно использовать прокси, чтобы зайти на рутор, достаточно воспользоваться нашим ресурсом. Все новые фильмы, игры, сериалы, книги и музыка за 2013 и 2014 годы через торрент бесплатно. Скачивайте фильмы в хорошем качестве, игры для пк, xbox, playstation без регистрации. У нас вы найдете новые Зарубежные сериалы и Русские сериалы 2013, 2014, 2015 годов. Оставайтесь с нами, качайте любимые фильмы, игры, сериалы, книги и музыку.