img image001 image001 image001 image001 image001 image001 image001 image001 image001 image001 image001 image001 image001 image001 image001

Planets Sun Sun Sun
Статистика раздачи
Автор: Снежана | Размер: 2.91 ГБ | Добавлен: 27 июл 2013
Раздают: 2    Качают: 4
Скачать торрент
Скачать торрент
Описание торрента

СообщениеДобавлено: 27 июл 2013 

Большое путешествие
The Wild
(2006)
BDRip 1080p [Hi10P] от FREEISLAND




Жанр: Комедия, Приключения, Анимационный

Режиссер: Стив ’Спаз’ Уильямс

Роли озвучивали:
Кифер Сазерленд, Джеймс Белуши, Эдди Иззард, Джанин Гарофало, Уильям Шетнер, Ричард Кайнд, Грег Сайпс, Колин Хэй, Майлз Марсико, Джек Де Сена, Дон Черри, Ника Футтерман, Джулианна Бушер

Описание:
Лев со своим сыном счастливо живут в Нью-Йоркском зоопарке. Но однажды маленького львенка посадили в клетку и отправили в Африку. Недолго погоревав, папа-лев решает спасти своего сынишку. Помочь царю зверей вызвались его друзья: коала, крокодил, хамелеон, жираф и белка (не та, что из «Ледникового периода»!). Ничего себе компания собралась… А что будет, если выпустить привыкших к спокойной и размеренной жизни в зоопарке животных в наш современный и дикий мир? Правильно – будет весело и интересно!



Официальный сайт

Страна: США, Канада
Выпущено: Walt Disney
Продолжительность: 1 ч. 21 м. 35 с.
Перевод 1: русский, профессиональный (полное дублирование) [R5]
Перевод 2: украинский, профессиональный (полное дублирование) [ADIOZ Production Studio (2008)]
Оригинальная разбивка на главы: сохранена

Внимание!

Рип в High 10 Profile, в настоящее время не поддерживается большинством аппаратных проигрывателей.
Для корректного воспроизведения может потребоваться обновление ПО.
Владельцам несовместимого железа просьба не беспокоить, на трекере есть альтернативные релизы.

Качество: BDRip 1080p Hi10P (SSIM: 0.9878930)
Исходник: BDRemux
Контейнер: MKV
Видео кодек: x264 High10@L5.1
Аудио кодек: AC-3
Видео: AVC at 4525 Кбит/сек, 1920 x 1040 (1.846) at 23.976 fps
Аудио 1: AC-3 at 384 Кбит/сек,6 каналов, 48,0 КГц DUB Rus
Аудио 2: AC-3 at 192 Кбит/сек,2 каналов, 48,0 КГц DUB Ukr
Субтитры 1: русские, форсированные, на места без перевода (SRT/UTF-8)
Субтитры 2: русские, полные (SRT/UTF-8)


Общее
Уникальный идентификатор : 194149103617962017739055926736399708427 (0x920FC1DA0BEF103990620BC5F0D9310B)
Полное имя : Большое путешествие [The Wild] (2006) BDRip-Hi10P 1080p by_F.HD.mkv
Формат : Matroska
Версия формата : Version 2
Размер файла : 2,91 Гбайт
Продолжительность : 1 ч. 21 м.
Общий поток : 5100 Кбит/сек
Название фильма : релиз от FREEISLAND.ORG
Дата кодирования : UTC 2012-08-17 14:26:19
Программа кодирования : mkvmerge v5.7.0 ('The Whirlwind') built on Jul 8 2012 20:08:51
Библиотека кодирования : libebml v1.2.3 + libmatroska v1.3.0

Видео
Идентификатор : 1
Формат : AVC
Формат/Информация : Advanced Video Codec
Профиль формата : High 10@L5.1
Параметр CABAC формата : Да
Параметр ReFrames формата : 16 кадров
Идентификатор кодека : V_MPEG4/ISO/AVC
Продолжительность : 1 ч. 21 м.
Битрейт : 4525 Кбит/сек
Ширина : 1920 пикселей
Высота : 1040 пикселей
Соотношение сторон : 16:9
Частота кадров : 23,976 кадра/сек
Цветовое пространство : YUV
Субдискретизация насыщенности : 4:2:0
Битовая глубина : 10 бит
Тип развёртки : Прогрессивная
Бит/(Пиксели*Кадры) : 0.095
Размер потока : 2,52 Гбайт (87%)
Библиотека кодирования : x264 core 125 r2208+677+32 26f090e tMod [10-bit@all X86_64]
Настройки программы : cabac=1 / ref=16 / deblock=1:1:1 / analyse=0x3:0x133 / me=umh / subme=11 / psy=1 / fade_compensate=0.00 / psy_rd=1.10:0.20 / mixed_ref=1 / me_range=64 / chroma_me=1 / trellis=2 / 8x8dct=1 / cqm=0 / deadzone=21,11 / fast_pskip=0 / chroma_qp_offset=-3 / threads=12 / lookahead_threads=2 / sliced_threads=0 / nr=0 / decimate=1 / interlaced=0 / bluray_compat=0 / constrained_intra=0 / fgo=0 / bframes=10 / b_pyramid=2 / b_adapt=2 / b_bias=0 / direct=3 / weightb=1 / open_gop=0 / weightp=2 / keyint=240 / keyint_min=24 / scenecut=40 / intra_refresh=0 / rc_lookahead=0 / rc=2pass / mbtree=0 / bitrate=4525 / ratetol=1.0 / qcomp=1.00 / qpmin=0 / qpmax=48 / qpstep=4 / cplxblur=48.0 / qblur=0.5 / vbv_maxrate=240000 / vbv_bufsize=240000 / nal_hrd=none / ip_ratio=1.40 / pb_ratio=1.30 / aq=4:0.85
Default : Да
Forced : Нет
Основные цвета : BT.709-5, BT.1361, IEC 61966-2-4, SMPTE RP177
Характеристики трансфера : BT.709-5, BT.1361
Коэффициенты матрицы : BT.709-5, BT.1361, IEC 61966-2-4 709, SMPTE RP177

Аудио #1
Идентификатор : 2
Формат : AC-3
Формат/Информация : Audio Coding 3
Расширение режима : CM (complete main)
Идентификатор кодека : A_AC3
Продолжительность : 1 ч. 21 м.
Вид битрейта : Постоянный
Битрейт : 384 Кбит/сек
Каналы : 6 каналов
Расположение каналов : Front: L C R, Side: L R, LFE
Частота : 48,0 КГц
Битовая глубина : 16 бит
Метод сжатия : С потерями
Размер потока : 224 Мбайт (8%)
Заголовок : DUB [R5]
Язык : Russian
Default : Да
Forced : Нет

Аудио #2
Идентификатор : 3
Формат : AC-3
Формат/Информация : Audio Coding 3
Расширение режима : CM (complete main)
Идентификатор кодека : A_AC3
Продолжительность : 1 ч. 21 м.
Вид битрейта : Постоянный
Битрейт : 192 Кбит/сек
Каналы : 2 канала
Расположение каналов : Front: L R
Частота : 48,0 КГц
Битовая глубина : 16 бит
Метод сжатия : С потерями
Размер потока : 112 Мбайт (4%)
Заголовок : DUB [ADIOZ Production Studio (2008)]
Язык : Ukrainian
Default : Нет
Forced : Нет

Текст #1
Идентификатор : 4
Формат : UTF-8
Идентификатор кодека : S_TEXT/UTF8
Идентификатор кодека/Информация : UTF-8 Plain Text
Заголовок : на места без перевода
Язык : Russian
Default : Да
Forced : Да

Текст #2
Идентификатор : 5
Формат : UTF-8
Идентификатор кодека : S_TEXT/UTF8
Идентификатор кодека/Информация : UTF-8 Plain Text
Заголовок : FULL
Язык : Russian
Default : Нет
Forced : Нет

Меню
00:00:00.000 : en:01. The Story
00:05:31.667 : en:02. Zoo's Closed
00:09:10.334 : en:03. Turtle Curling
00:11:05.334 : en:04. The Gazelles
00:15:36.668 : en:05. Losing Ryan
00:19:08.202 : en:06. The Pigeons
00:21:55.869 : en:07. New York
00:27:56.169 : en:08. The Sewers
00:31:10.503 : en:09. Sunrise
00:34:35.170 : en:10. Benny Returns
00:37:38.237 : en:11. The Wild
00:42:39.337 : en:12. The Truth
00:47:18.205 : en:13. The Wildebeests
00:50:49.406 : en:14. The Omen
00:53:56.406 : en:15. Ryan's Capture
01:00:45.673 : en:16. A Real Lion
01:04:10.040 : en:17. The Ritual
01:08:01.374 : en:18. Ryan's Roar
01:12:37.507 : en:19. Going Home
01:15:48.507 : en:20. Credits















СЭМПЛ

Релиз от:

Если у вас возникают вопросы типа:
-почему у меня есть звук и отсутствует изображение?
-почему у меня рассыпается картинка?
-почему у меня картинка фонит синевой или зеленью?
-зачем и кому всё это нужно?
и тому подобные, читаем FAQ.
ссылка на FAQ запрещена правилами.

По этому, гуглим на тему спойлера (Что такое 10-ти битное видео (High 10 Profile - Hi10P), и как его смотреть?).



   Похожие торренты   Торрент   Размер 
В этой теме нет новых непрочитанных сообщений. Остров (2006) BDRip 1080p [Hi10P] от FREEISLAND

85 | 4

4.37 ГБ

В этой теме нет новых непрочитанных сообщений. Гроза муравьев / The Ant Bully (2006) BDRip 1080p [Hi10P] от FREEISLAND

13 | 3

2.91 ГБ

В этой теме нет новых непрочитанных сообщений. Бесстрашный / Fearless / Huo Yuan Jia (2006) BDRip 1080p [Hi10P] от FREEISLAND | Театральная версия

3 | 5

4.37 ГБ

В этой теме нет новых непрочитанных сообщений. Большое путешествие / The Wild (2006) BDRip 1080p

13 | 7

4.37 ГБ

В этой теме нет новых непрочитанных сообщений. От винта (2012) BDRip 1080p [Hi10P] от FREEISLAND

18 | 2

2.18 ГБ

В этой теме нет новых непрочитанных сообщений. Санта Клаус: Трилогия / The Santa Clause: Trilogy (1994-2006) BDRip-AVC,DVDRip-AVC [Hi10P] от FREEISLAND

55 | 8

2.26 ГБ

В этой теме нет новых непрочитанных сообщений. Большое путешествие / The Wild (2006) BDRip 720p от PskovLine

1 | 2

3.44 ГБ




Вы не можете начинать темы
Вы не можете отвечать на сообщения
Вы не можете редактировать свои сообщения
Вы не можете удалять свои сообщения
Вы не можете добавлять вложения

Перейти:  
Для Мосгорсуда, Роскомнадзора и рекламодателей: mosgorsud-torrent[собачка]yandex.ru
 Вход
ppkBB3cker v.2 © 2008-2014 @ PPK
[ Time : 0.795s | 14 Queries | GZIP : Off ]

Торрент трекер RUTOR.IN, Не можете зайти на rutor.org? Какой новый адрес рутор? Какое зеркало рутор? Не работает rutor.org и зеркала? Тогда наш торрент специально для вас. Rutor.in неофициальное зеркало rutor. В случае если у Вас заблокирован rutor или вдруг Вы не можете на него зайти, то Вы без труда сможете скачать бесплатно и без рекламы последние новинки кино, игр, сериалов и прочего у нас, на Rutor.in. Не нужно использовать прокси, чтобы зайти на рутор, достаточно воспользоваться нашим ресурсом. Все новые фильмы, игры, сериалы, книги и музыка за 2013 и 2014 годы через торрент бесплатно. Скачивайте фильмы в хорошем качестве, игры для пк, xbox, playstation без регистрации. У нас вы найдете новые Зарубежные сериалы и Русские сериалы 2013, 2014, 2015 годов. Оставайтесь с нами, качайте любимые фильмы, игры, сериалы, книги и музыку.