img image001 image001 image001 image001 image001 image001 image001 image001 image001 image001 image001 image001 image001 image001 image001

Planets Sun Sun Sun
Статистика раздачи
Автор: Снежана | Размер: 4.37 ГБ | Добавлен: 27 июл 2013
Раздают: 73    Качают: 7
Скачать торрент
Скачать торрент
Описание торрента

СообщениеДобавлено: 27 июл 2013 

#77

Информация о фильме
Название: Делай ноги
Оригинальное название: Happy Feet
Год выхода: 2006
Жанр: мультфильм, мелодрама, комедия, приключения, семейный, музыка
Режиссер: Джордж Миллер, Уоррен Коулмэн, Джуди Моррис
В ролях: Джим Керри, Вирджиния Мэдсен, Логан Лерман, Дэнни Хьюстон, Линн Коллинз, Рона Митрэ, Мишель Артур, Марк Пеллегрино, Пол Батчер, Дэвид Стифел, Кори Столл, Эд Лоутер, Патриция Белчер

О фильме:
В музыкальном мире императорских пингвинов, которые находят себе пару благодаря пению, рождается пингвиненок по имени Мамбл, который не может издать ни одной ноты… зато может отплясывать ту еще чечетку. Его родители, Норма Джин и Мемфис в отчаянии, но надеются, что их лишенный музыкального слуха малыш перерастет свое нелепое танцевальное увлечение. Однако пытаясь пропеть хоть какую-то мелодию, он не может перестать отбивать чечетку даже ради того, чтобы завоевать любовь своей возлюбленной Глории…



Выпущено: США, Австралия
Продолжительность: 01:48:32
Перевод: Дублированный + Оригинал

Файл
Кодек: x264
Качество: BDRip 1080p
Видео: 1920x800, 4489 Kbps, 23.976 fps
Аудио #1: AC-3, 6 ch, 640 kbps (Rus)
Аудио #2: AC-3, 6 ch, 640 kbps (Eng)
Субтитры: русские, английские

General
Unique ID : 240246105200633581486796909658555565561 (0xB4BDB78063EB36B39A4683175E4045F9)
Complete name : Делай ноги.2006.BDRip.1080p.Rus.Eng.mkv
Format : Matroska
Format version : Version 2
File size : 4.37 GiB
Duration : 1h 48mn
Overall bit rate : 5 770 Kbps
Movie name : Делай ноги.2006
Encoded date : UTC 2012-08-18 10:08:56
Writing application : mkvmerge v5.7.0 ('The Whirlwind') built on Aug 7 2012 14:11:40
Writing library : libebml v1.2.3 + libmatroska v1.3.0

Video
ID : 1
Format : AVC
Format/Info : Advanced Video Codec
Format profile : High@L4.1
Format settings, CABAC : Yes
Format settings, ReFrames : 5 frames
Codec ID : V_MPEG4/ISO/AVC
Duration : 1h 48mn
Bit rate : 4 489 Kbps
Width : 1 920 pixels
Height : 800 pixels
Display aspect ratio : 2.40:1
Frame rate mode : Constant
Frame rate : 23.976 fps
Color space : YUV
Chroma subsampling : 4:2:0
Bit depth : 8 bits
Scan type : Progressive
Bits/(Pixel*Frame) : 0.122
Stream size : 3.32 GiB (76%)
Title : Rip by Boriy
Writing library : x264 core 125 r2208 d9d2288
Encoding settings : cabac=1 / ref=5 / deblock=1:0:0 / analyse=0x3:0x113 / me=umh / subme=10 / psy=1 / psy_rd=1.00:0.10 / mixed_ref=1 / me_range=32 / chroma_me=1 / trellis=2 / 8x8dct=1 / cqm=0 / deadzone=21,11 / fast_pskip=0 / chroma_qp_offset=-3 / threads=12 / lookahead_threads=2 / sliced_threads=0 / nr=0 / decimate=0 / interlaced=0 / bluray_compat=0 / constrained_intra=0 / bframes=5 / b_pyramid=2 / b_adapt=2 / b_bias=0 / direct=3 / weightb=1 / open_gop=0 / weightp=2 / keyint=240 / keyint_min=23 / scenecut=40 / intra_refresh=0 / rc_lookahead=60 / rc=2pass / mbtree=1 / bitrate=4489 / ratetol=1.0 / qcomp=0.60 / qpmin=0 / qpmax=69 / qpstep=4 / cplxblur=20.0 / qblur=0.5 / ip_ratio=1.40 / aq=1:1.00
Language : English
Default : Yes
Forced : No

Audio #1
ID : 2
Format : AC-3
Format/Info : Audio Coding 3
Mode extension : CM (complete main)
Format settings, Endianness : Big
Codec ID : A_AC3
Duration : 1h 48mn
Bit rate mode : Constant
Bit rate : 640 Kbps
Channel(s) : 6 channels
Channel positions : Front: L C R, Side: L R, LFE
Sampling rate : 48.0 KHz
Bit depth : 16 bits
Compression mode : Lossy
Stream size : 497 MiB (11%)
Title : Дубляж
Language : Russian
Default : Yes
Forced : No

Audio #2
ID : 3
Format : AC-3
Format/Info : Audio Coding 3
Mode extension : CM (complete main)
Format settings, Endianness : Big
Codec ID : A_AC3
Duration : 1h 48mn
Bit rate mode : Constant
Bit rate : 640 Kbps
Channel(s) : 6 channels
Channel positions : Front: L C R, Side: L R, LFE
Sampling rate : 48.0 KHz
Bit depth : 16 bits
Compression mode : Lossy
Stream size : 497 MiB (11%)
Title : Оригинал
Language : English
Default : No
Forced : No

Text #1
ID : 4
Format : UTF-8
Codec ID : S_TEXT/UTF8
Codec ID/Info : UTF-8 Plain Text
Language : Russian
Default : No
Forced : No

Text #2
ID : 5
Format : UTF-8
Codec ID : S_TEXT/UTF8
Codec ID/Info : UTF-8 Plain Text
Language : English
Default : No
Forced : No

Menu
00:00:00.000 : :Chapter 1
00:04:42.282 : :Chapter 2
00:07:00.586 : :Chapter 3
00:11:55.548 : :Chapter 4
00:15:05.404 : :Chapter 5
00:18:15.928 : :Chapter 6
00:22:27.512 : :Chapter 7
00:27:35.987 : :Chapter 8
00:29:55.293 : :Chapter 9
00:32:48.466 : :Chapter 10
00:36:59.550 : :Chapter 11
00:39:48.386 : :Chapter 12
00:43:52.463 : :Chapter 13
00:49:13.951 : :Chapter 14
00:52:19.803 : :Chapter 15
00:56:11.868 : :Chapter 16
01:00:52.649 : :Chapter 17
01:03:49.826 : :Chapter 18
01:07:12.862 : :Chapter 19
01:10:25.554 : :Chapter 20
01:13:49.091 : :Chapter 21
01:16:39.595 : :Chapter 22
01:21:40.395 : :Chapter 23
01:25:07.102 : :Chapter 24
01:27:15.897 : :Chapter 25
01:31:30.485 : :Chapter 26
01:34:31.999 : :Chapter 27
01:38:42.416 : :Chapter 28
01:48:31.963 : :Chapter 29



   Похожие торренты   Торрент   Размер 
В этой теме нет новых непрочитанных сообщений. Делай ноги / Happy Feet (2006) BDRip-AVC | D

249 | 12

743.03 МБ

В этой теме нет новых непрочитанных сообщений. Делай ноги / Happy Feet (2006) BDRip-AVC

8 | 3

2.18 ГБ

В этой теме нет новых непрочитанных сообщений. Делай ноги / Happy Feet (2006) BDRip-AVC от NovaLan

20 | 7

1.97 ГБ

В этой теме нет новых непрочитанных сообщений. Делай ноги / Happy Feet (2006) BDRip 720 от SuperMin | D

38 | 6

3.06 ГБ

В этой теме нет новых непрочитанных сообщений. Делай ноги / Happy Feet (2006) BDRip 720 от SuperMin

144 | 20

2.38 ГБ

В этой теме нет новых непрочитанных сообщений. Делай ноги / Happy Feet (2006) BDRip от HQCLUB

34 | 3

2.18 ГБ

В этой теме нет новых непрочитанных сообщений. Делай ноги 2 / Happy Feet Two (2011) BDRip 1080p

39 | 10

4.37 ГБ




Вы не можете начинать темы
Вы не можете отвечать на сообщения
Вы не можете редактировать свои сообщения
Вы не можете удалять свои сообщения
Вы не можете добавлять вложения

Перейти:  
Для Мосгорсуда, Роскомнадзора и рекламодателей: mosgorsud-torrent[собачка]yandex.ru
 Вход
ppkBB3cker v.2 © 2008-2014 @ PPK
[ Time : 0.040s | 15 Queries | GZIP : Off ]

Торрент трекер RUTOR.IN, Не можете зайти на rutor.org? Какой новый адрес рутор? Какое зеркало рутор? Не работает rutor.org и зеркала? Тогда наш торрент специально для вас. Rutor.in неофициальное зеркало rutor. В случае если у Вас заблокирован rutor или вдруг Вы не можете на него зайти, то Вы без труда сможете скачать бесплатно и без рекламы последние новинки кино, игр, сериалов и прочего у нас, на Rutor.in. Не нужно использовать прокси, чтобы зайти на рутор, достаточно воспользоваться нашим ресурсом. Все новые фильмы, игры, сериалы, книги и музыка за 2013 и 2014 годы через торрент бесплатно. Скачивайте фильмы в хорошем качестве, игры для пк, xbox, playstation без регистрации. У нас вы найдете новые Зарубежные сериалы и Русские сериалы 2013, 2014, 2015 годов. Оставайтесь с нами, качайте любимые фильмы, игры, сериалы, книги и музыку.
cron