img image001 image001 image001 image001 image001 image001 image001 image001 image001 image001 image001 image001 image001 image001 image001

Planets Sun Sun Sun
Статистика раздачи
Автор: Снежана | Размер: 3.99 ГБ | Добавлен: 27 июл 2013
Раздают: 51    Качают: 8
Скачать торрент
Скачать торрент
Описание торрента

СообщениеДобавлено: 27 июл 2013 


Год выпуска: 2012
Страна: США, Япония
Студии: Sola Digital Arts, Stage 6 Films
Жанр: Фантастика, боевик
Продолжительность: 01:28:48


Перевод: Профессиональный (многоголосый) {лицензия}


Режиссер: Синдзи Арамаки / Shinji Aramaki


В главных ролях: Леральдо Анзальдо, Люси Кристиан, Мелисса Дэвис, Джастин Доран, Дэвид Матранга, Эмили Ньюис, Дэвид Уолд


Описание: После того, как был покинут отдаленный форпост Федерации, Форт Кейси, Карл Дженкинс отправляется на разведку и исчезает в туманности. Закаленные во множественных боях солдаты могут своими действиями принести на Землю смерть человечества, а могут и наоборот его спасти. Третьего не дано...





Качество: BDRip (Рип с Blu-Ray)
Формат: MKV
Видео: кодек: H.264, размер кадра: 1280x720, битрейт: ~5530 Kbps
Аудио #1: язык: русский, кодек: AC3 5.1, битрейт: ~448 Kbps
Аудио #2: язык: английский, кодек: AC3 5.1, битрейт: ~448 Kbps
Субтитры: Русские, английские


General
Unique ID : 185477152137793535928835602469374147163 (0x8B8999A221BB29DF94305FBFB45C3A5B)
Complete name : C:Уйдет в мусор позжеStarship.Troopers.Invasion.2012.720p.BluRay.x264-AC3.Rus.Eng-HDLine.mkv
Format : Matroska
Format version : Version 2
File size : 3.99 GiB
Duration : 1h 28mn
Overall bit rate : 6 424 Kbps
Movie name : Starship Troopers: Invasion (2012) - Release for HDLine
Encoded date : UTC 2012-08-23 15:43:51
Writing application : mkvmerge v5.7.0 ('The Whirlwind') built on Jul 8 2012 20:08:51
Writing library : libebml v1.2.3 + libmatroska v1.3.0

Video
ID : 1
Format : AVC
Format/Info : Advanced Video Codec
Format profile : High@L4.1
Format settings, CABAC : Yes
Format settings, ReFrames : 9 frames
Codec ID : V_MPEG4/ISO/AVC
Duration : 1h 28mn
Bit rate : 5 526 Kbps
Width : 1 280 pixels
Height : 720 pixels
Display aspect ratio : 16:9
Frame rate : 23.976 fps
Color space : YUV
Chroma subsampling : 4:2:0
Bit depth : 8 bits
Scan type : Progressive
Bits/(Pixel*Frame) : 0.250
Stream size : 3.35 GiB (84%)
Title : Звездный десант: Вторжение (2012)
Writing library : x264 core 120 r2164+656 2ff844c
Encoding settings : cabac=1 / ref=9 / deblock=1:-3:-3 / analyse=0x3:0x113 / me=umh / subme=10 / psy=1 / fade_compensate=0.00 / psy_rd=1.05:0.10 / mixed_ref=1 / me_range=32 / chroma_me=1 / trellis=2 / 8x8dct=1 / cqm=0 / deadzone=21,11 / fast_pskip=0 / chroma_qp_offset=-2 / threads=12 / sliced_threads=0 / nr=0 / decimate=1 / interlaced=0 / bluray_compat=0 / constrained_intra=0 / fgo=0 / bframes=6 / b_pyramid=2 / b_adapt=2 / b_bias=0 / direct=3 / weightb=1 / open_gop=0 / weightp=2 / keyint=250 / keyint_min=23 / scenecut=40 / intra_refresh=0 / rc_lookahead=40 / rc=2pass / mbtree=0 / bitrate=5526 / ratetol=1.0 / qcomp=0.70 / qpmin=0 / qpmax=69 / qpstep=4 / cplxblur=20.0 / qblur=0.5 / vbv_maxrate=20000 / vbv_bufsize=30000 / nal_hrd=none / ip_ratio=1.40 / pb_ratio=1.30 / aq=2:1.00
Language : English
Default : Yes
Forced : No
Color primaries : BT.709-5, BT.1361, IEC 61966-2-4, SMPTE RP177
Transfer characteristics : BT.709-5, BT.1361
Matrix coefficients : BT.709-5, BT.1361, IEC 61966-2-4 709, SMPTE RP177

Audio #1
ID : 2
Format : AC-3
Format/Info : Audio Coding 3
Mode extension : CM (complete main)
Format settings, Endianness : Big
Codec ID : A_AC3
Duration : 1h 28mn
Bit rate mode : Constant
Bit rate : 448 Kbps
Channel(s) : 6 channels
Channel positions : Front: L C R, Side: L R, LFE
Sampling rate : 48.0 KHz
Bit depth : 16 bits
Compression mode : Lossy
Stream size : 285 MiB (7%)
Title : DD 5.1 @ 448 kbps - Многоголосый закадровый, R5
Language : Russian
Default : Yes
Forced : No

Audio #2
ID : 3
Format : AC-3
Format/Info : Audio Coding 3
Mode extension : CM (complete main)
Format settings, Endianness : Big
Codec ID : A_AC3
Duration : 1h 28mn
Bit rate mode : Constant
Bit rate : 448 Kbps
Channel(s) : 6 channels
Channel positions : Front: L C R, Side: L R, LFE
Sampling rate : 48.0 KHz
Bit depth : 16 bits
Compression mode : Lossy
Stream size : 285 MiB (7%)
Title : DD 5.1 @ 448 kbps - Original
Language : English
Default : No
Forced : No

Text #1
ID : 4
Format : UTF-8
Codec ID : S_TEXT/UTF8
Codec ID/Info : UTF-8 Plain Text
Language : Russian
Default : No
Forced : No

Text #2
ID : 5
Format : UTF-8
Codec ID : S_TEXT/UTF8
Codec ID/Info : UTF-8 Plain Text
Language : English
Default : No
Forced : No

Menu
00:00:00.000 : en:00:00:00.000
00:06:01.611 : en:00:06:01.611
00:10:44.394 : en:00:10:44.394
00:16:59.310 : en:00:16:59.310
00:20:35.192 : en:00:20:35.192
00:26:48.440 : en:00:26:48.440
00:32:48.133 : en:00:32:48.133
00:39:01.798 : en:00:39:01.798
00:44:34.422 : en:00:44:34.422
00:51:01.517 : en:00:51:01.517
00:56:55.621 : en:00:56:55.621
01:00:33.755 : en:01:00:33.755
01:04:49.135 : en:01:04:49.135
01:08:09.168 : en:01:08:09.168
01:13:16.225 : en:01:13:16.225
01:18:14.189 : en:01:18:14.189







   Похожие торренты   Торрент   Размер 
В этой теме нет новых непрочитанных сообщений. Звездный десант: Вторжение / Starship Troopers: Invasion (2012) BDRip 1080p

151 | 24

5.76 ГБ

В этой теме нет новых непрочитанных сообщений. Звездный десант: Вторжение / Starship Troopers: Invasion (2012) BDRip от HQCLUB

94 | 13

1.45 ГБ

В этой теме нет новых непрочитанных сообщений. Звездный десант: Вторжение / Starship Troopers: Invasion (2012) BDRip-AVC от potroks | P | Лицензия

85 | 9

2.17 ГБ

В этой теме нет новых непрочитанных сообщений. Звездный десант: Вторжение / Starship Troopers: Invasion (2011) BDRip от Youtracker

50 | 4

1.5 ГБ

В этой теме нет новых непрочитанных сообщений. Звездный десант: Вторжение / Starship Troopers: Invasion (2011) BDRip от Youtracker

7 | 8

745.03 МБ

В этой теме нет новых непрочитанных сообщений. Звездный десант: Вторжение / Starship Troopers: Invasion (2011) Blu-Ray

1 | 3

37.77 ГБ

В этой теме нет новых непрочитанных сообщений. Звездный десант: Вторжение / Starship Troopers: Invasion (2011) DVD9 R5 от Youtracker | Лицензия

14 | 3

6.85 ГБ




Вы не можете начинать темы
Вы не можете отвечать на сообщения
Вы не можете редактировать свои сообщения
Вы не можете удалять свои сообщения
Вы не можете добавлять вложения

Перейти:  
Для Мосгорсуда, Роскомнадзора и рекламодателей: mosgorsud-torrent[собачка]yandex.ru
 Вход
ppkBB3cker v.2 © 2008-2014 @ PPK
[ Time : 0.019s | 14 Queries | GZIP : On ]

Торрент трекер RUTOR.IN, Не можете зайти на rutor.org? Какой новый адрес рутор? Какое зеркало рутор? Не работает rutor.org и зеркала? Тогда наш торрент специально для вас. Rutor.in неофициальное зеркало rutor. В случае если у Вас заблокирован rutor или вдруг Вы не можете на него зайти, то Вы без труда сможете скачать бесплатно и без рекламы последние новинки кино, игр, сериалов и прочего у нас, на Rutor.in. Не нужно использовать прокси, чтобы зайти на рутор, достаточно воспользоваться нашим ресурсом. Все новые фильмы, игры, сериалы, книги и музыка за 2013 и 2014 годы через торрент бесплатно. Скачивайте фильмы в хорошем качестве, игры для пк, xbox, playstation без регистрации. У нас вы найдете новые Зарубежные сериалы и Русские сериалы 2013, 2014, 2015 годов. Оставайтесь с нами, качайте любимые фильмы, игры, сериалы, книги и музыку.