img image001 image001 image001 image001 image001 image001 image001 image001 image001 image001 image001 image001 image001 image001 image001

Planets Sun Sun Sun
Статистика раздачи
Автор: Снежана | Размер: 744.14 МБ | Добавлен: 27 июл 2013
Раздают: 47    Качают: 4
Скачать торрент
Скачать торрент
Описание торрента

СообщениеДобавлено: 27 июл 2013 

#77

Информация о фильме
Название: Повелитель страниц
Оригинальное название: The Pagemaster
Страна: США
Жанр: мультфильм, фэнтези, мелодрама, комедия, детектив
Продолжительность: 01:15:29
Год выпуска: 1994
Перевод: Профессиональный (многоголосый закадровый)
Русские субтитры: нет

Режиссёр: Пиксоут Хант, Джо Джонстон / Pixote Hunt, Joe Johnston

В ролях: Маколей Калкин, Кенан Дж. Хоувл, Алексис Киршнер, Джессика Киршнер, Брэндон С. МакКэй, Стефен Шиэн, Эд Бегли мл., Мэл Харрис, Кристофер Ллойд
Описание: Ричайрд Тайлер заходит в библиотеку и, благодаря волшебству, попадает на страницы самых лучших детских книг. Вместе с любимыми героями он участвует в мультипликационных приключениях, так как сам стал мультяшкой.


Сэмпл: http://multi-up.com/452368

Качество: DVDRip
Формат: AVI
Видео: 672x368 (1.83:1), 23.976 fps, XviD build 61, 1176 kbps avg, 0.20 bit/pixel
Аудио: Dolby AC3 48000Hz stereo 192kbps
General
Complete name : D:REALISE Y.T.NPovelitel_stranic_744_by_yabrat.avi
Format : AVI
Format/Info : Audio Video Interleave
File size : 744 MiB
Duration : 1h 15mn
Overall bit rate : 1 378 Kbps
Writing library : VirtualDubMod build 2550/release

Video
ID : 0
Format : MPEG-4 Visual
Format profile : Advanced Simple@L5
Format settings, BVOP : 1
Format settings, QPel : No
Format settings, GMC : No warppoints
Format settings, Matrix : Default (MPEG)
Codec ID : XVID
Codec ID/Hint : XviD
Duration : 1h 15mn
Bit rate : 1 177 Kbps
Width : 672 pixels
Height : 368 pixels
Display aspect ratio : 16:9
Frame rate : 23.976 fps
Color space : YUV
Chroma subsampling : 4:2:0
Bit depth : 8 bits
Scan type : Progressive
Compression mode : Lossy
Bits/(Pixel*Frame) : 0.198
Stream size : 635 MiB (85%)
Writing library : XviD 61

Audio
ID : 1
Format : AC-3
Format/Info : Audio Coding 3
Mode extension : CM (complete main)
Codec ID : 2000
Duration : 1h 15mn
Bit rate mode : Constant
Bit rate : 192 Kbps
Channel(s) : 2 channels
Channel positions : Front: L R
Sampling rate : 48.0 KHz
Bit depth : 16 bits
Compression mode : Lossy
Stream size : 104 MiB (14%)
Alignment : Split accross interleaves
Interleave, duration : 42 ms (1.00 video frame)
Interleave, preload duration : 500 ms






   Похожие торренты   Торрент   Размер 
В этой теме нет новых непрочитанных сообщений. Повелитель страниц / The Pagemaster (1994) BDRip-AVC от HELLYWOOD | P

11 | 7

1.76 ГБ

В этой теме нет новых непрочитанных сообщений. Повелитель страниц / The Pagemaster (1994) BDRip от HQCLUB

60 | 7

1.45 ГБ

В этой теме нет новых непрочитанных сообщений. Повелитель страниц / The Pagemaster (1994) BDRip от 0ptimus | P, A

15 | 3

2.12 ГБ

В этой теме нет новых непрочитанных сообщений. Повелитель страниц / The Pagemaster (1994) BDRip-AVC от Leonardo and Scarabey

63 | 8

1.93 ГБ

В этой теме нет новых непрочитанных сообщений. Повелитель страниц / The Pagemaster (1994) BDRip 1080p от MediaClub | P, A

12 | 3

8.62 ГБ

В этой теме нет новых непрочитанных сообщений. Повелитель страниц / The Pagemaster (1994) BDRip 720p от MediaClub | P, A

4 | 3

7.14 ГБ

В этой теме нет новых непрочитанных сообщений. Повелитель страниц / The Pagemaster (1994) BDRip 720p от Leonardo and Scarabey | P

75 | 21

5.46 ГБ




Вы не можете начинать темы
Вы не можете отвечать на сообщения
Вы не можете редактировать свои сообщения
Вы не можете удалять свои сообщения
Вы не можете добавлять вложения

Перейти:  
Для Мосгорсуда, Роскомнадзора и рекламодателей: mosgorsud-torrent[собачка]yandex.ru
 Вход
ppkBB3cker v.2 © 2008-2014 @ PPK
[ Time : 0.078s | 14 Queries | GZIP : Off ]

Торрент трекер RUTOR.IN, Не можете зайти на rutor.org? Какой новый адрес рутор? Какое зеркало рутор? Не работает rutor.org и зеркала? Тогда наш торрент специально для вас. Rutor.in неофициальное зеркало rutor. В случае если у Вас заблокирован rutor или вдруг Вы не можете на него зайти, то Вы без труда сможете скачать бесплатно и без рекламы последние новинки кино, игр, сериалов и прочего у нас, на Rutor.in. Не нужно использовать прокси, чтобы зайти на рутор, достаточно воспользоваться нашим ресурсом. Все новые фильмы, игры, сериалы, книги и музыка за 2013 и 2014 годы через торрент бесплатно. Скачивайте фильмы в хорошем качестве, игры для пк, xbox, playstation без регистрации. У нас вы найдете новые Зарубежные сериалы и Русские сериалы 2013, 2014, 2015 годов. Оставайтесь с нами, качайте любимые фильмы, игры, сериалы, книги и музыку.