img image001 image001 image001 image001 image001 image001 image001 image001 image001 image001 image001 image001 image001 image001 image001

Planets Sun Sun Sun
Статистика раздачи
Автор: Снежана | Размер: 9.66 ГБ | Добавлен: 27 июл 2013
Раздают: 3    Качают: 3
Скачать торрент
Скачать торрент
Описание торрента

СообщениеДобавлено: 27 июл 2013 

#77

Год выпуска: 2003
Страна: Германия Дания Великобритания
Жанр: Мультсериал
Продолжительность: 11:26:00 (26 серий по 26 минут)
Перевод: Профессиональный (полное дублирование)
Русские субтитры: есть
Оригинальная аудиодорожка: английский (в отдельной папке)


Режиссер: Карстен Килерих / Karsten Kiilerich


Описание: В чудесной стране живут добрые тролли — Ловкач, Толстяк, Малявка и их друзья. Они веселятся, шалят и метают коров на досуге. Но им постоянно пытаются всячески насолить: Каменный Великан просыпается и забрасывает их камнями, эльфы охотятся за ними, коварные гномы роют каналы в их лесу и взрывают волшебный сыр. Но маленькие тролли не отчаиваются. Они найдут выход из любого трудного положения!





Исходник: | 8xDVD5 R5
Качество: DVDRip
Формат: AVI

Видео: 672x512 (4:3), 25.000 fps, XviD MPEG-4 ~1650 kbps avg, 0.192 bit/pixel
Аудио 1: 48 kHz, AC3 Dolby Digital, 2 ch, 192 kbps, русский
Аудио 2: 48 kHz, AC3 Dolby Digital, 2 ch, 192 kbps, английский (в отдельной папке)
Формат субтитров: SoftSub (srt), субтитры всех серий находятся отдельной папке, чтобы их просмотреть, следует просто поместить их в папку фильма.
Доп. информация: Запись сериала (без дополнительных звуковых дорожек) расчитана на 2хDVD5 - по 13 серий на диск. Если Вам не хочется качать оригинальный звук или субтитры, просто отожмите соответствующие галочки напротив папок субтитров или оригинального звука при загрузке торрент файла в клиент.

Раздача от:

Общее
Полное имя : Strana.trolley.2003.D.DVDRip_[Youtracker]_by_avproh/01.avi
Формат : AVI
Формат/Информация : Audio Video Interleave
Размер файла : 345 Мбайт
Продолжительность : 26 м.
Общий поток : 1852 Кбит/сек
Программа кодирования : VirtualDubMod 1.5.10.3 (build 2550/release)
Библиотека кодирования : VirtualDubMod build 2550/release

Видео
Идентификатор : 0
Формат : MPEG-4 Visual
Профиль формата : Advanced Simple@L5
Параметр BVOP формата : 1
Параметр QPel формата : Нет
Параметр GMC формата : Без точки перехода
Параметр матрицы формата : Выборочная
Идентификатор кодека : XVID
Идентификатор кодека/Подсказка : XviD
Продолжительность : 26 м.
Битрейт : 1650 Кбит/сек
Ширина : 672 пикселя
Высота : 512 пикселей
Соотношение сторон : 4:3
Частота кадров : 25,000 кадров/сек
Цветовое пространство : YUV
Субдискретизация насыщенности : 4:2:0
Битовая глубина : 8 бит
Тип развёртки : Прогрессивная
Метод сжатия : С потерями
Бит/(Пиксели*Кадры) : 0.192
Размер потока : 307 Мбайт (89%)
Библиотека кодирования : XviD 65

Аудио
Идентификатор : 1
Формат : AC-3
Формат/Информация : Audio Coding 3
Расширение режима : CM (complete main)
Параметр Endianness формата : Big
Идентификатор кодека : 2000
Продолжительность : 26 м.
Вид битрейта : Постоянный
Битрейт : 192 Кбит/сек
Каналы : 2 канала
Расположение каналов : Front: L R
Частота : 48,0 КГц
Битовая глубина : 16 бит
Метод сжатия : С потерями
Размер потока : 35,7 Мбайт (10%)
Выравнивание : Разделение по промежуткам
Продолжительность промежутка : 40 мс. (1,00 видеокадр)
Время предзагрузки промежутка : 500 мс.



http://rutor.org/torrent/143373/strana-trollej_troll-tales-s01-1999-2003-dvdrip-ot-enelf

Сравнения видеоряда: http://www.check2pic.ru/compare/20402 картинка у конкурента интерлейсная, не на протяжении всего фильма, но таких мест достаточно много, и перекроп по вертикали (сверху лишнее срезано).

Сравнение звука: http://www.check2pic.ru/compare/20405 Я звук исходный усилил и понизил битрейт, что никак не сказалось на его качестве, недаром стандартом двухканального звука DVD является именно 192 кбпс.



   Похожие торренты   Торрент   Размер 
В этой теме нет новых непрочитанных сообщений. Страна троллей / Troll Tales [01-26 из 26] (1999-2003) 8xDVD5 от Youtracker | лицензия

0 | 3

29.01 ГБ

В этой теме нет новых непрочитанных сообщений. Страна троллей / Troll tales [S01] (1999-2003) DVDRip от Enelf

4 | 5

9.18 ГБ

В этой теме нет новых непрочитанных сообщений. Страна Троллей / Troll Tales (2003) DVDRip от Киномагия

5 | 4

1.37 ГБ

В этой теме нет новых непрочитанных сообщений. Охотники на троллей / The Troll Hunter / Trolljegeren (2010) HDRip

1 | 4

1.36 ГБ

В этой теме нет новых непрочитанных сообщений. Охотники на троллей / The Troll hunter / Trolljegeren (2010) HDRip

4 | 2

1.68 ГБ

В этой теме нет новых непрочитанных сообщений. Охотники на троллей / The Troll Hunter / Trolljegeren (2010) HDRip-AVC | D

220 | 55

745.31 МБ

В этой теме нет новых непрочитанных сообщений. Охотники на троллей / The Troll Hunter / Trolljegeren (2010) HDRip

0 | 2

1.36 ГБ




Вы не можете начинать темы
Вы не можете отвечать на сообщения
Вы не можете редактировать свои сообщения
Вы не можете удалять свои сообщения
Вы не можете добавлять вложения

Перейти:  
Для Мосгорсуда, Роскомнадзора и рекламодателей: mosgorsud-torrent[собачка]yandex.ru
 Вход
ppkBB3cker v.2 © 2008-2014 @ PPK
[ Time : 0.022s | 14 Queries | GZIP : Off ]

Торрент трекер RUTOR.IN, Не можете зайти на rutor.org? Какой новый адрес рутор? Какое зеркало рутор? Не работает rutor.org и зеркала? Тогда наш торрент специально для вас. Rutor.in неофициальное зеркало rutor. В случае если у Вас заблокирован rutor или вдруг Вы не можете на него зайти, то Вы без труда сможете скачать бесплатно и без рекламы последние новинки кино, игр, сериалов и прочего у нас, на Rutor.in. Не нужно использовать прокси, чтобы зайти на рутор, достаточно воспользоваться нашим ресурсом. Все новые фильмы, игры, сериалы, книги и музыка за 2013 и 2014 годы через торрент бесплатно. Скачивайте фильмы в хорошем качестве, игры для пк, xbox, playstation без регистрации. У нас вы найдете новые Зарубежные сериалы и Русские сериалы 2013, 2014, 2015 годов. Оставайтесь с нами, качайте любимые фильмы, игры, сериалы, книги и музыку.