img image001 image001 image001 image001 image001 image001 image001 image001 image001 image001 image001 image001 image001 image001 image001

Planets Sun Sun Sun
Статистика раздачи
Автор: Снежана | Размер: 1.79 ГБ | Добавлен: 27 июл 2013
Раздают: 17    Качают: 5
Скачать торрент
Скачать торрент
Описание торрента

СообщениеДобавлено: 27 июл 2013 

#77

Информация о фильме
Название: Петя и волк
Оригинальное название: Peter & the Wolf
Год выхода: 2006
Жанр: Мультфильм, короткометражка, семейный, музыка
Режиссер: Сьюзи Темплтон

О фильме:
Мультфильм создан по мотивам детской симфонической сказки Сергея Прокофьева в исполнении живого оркестра.

Мальчик Петя живет вместе с дедушкой в доме за забором на краю леса. Дедушка запрещает Пете выходить из дома, поэтому у него нет друзей среди детей: его друзья — гусь да озорная птица. Но Петю одолевает любопытство, и однажды, несмотря на запрет, он бежит в открытый мир на поиски приключений…



Страна: Великобритания, Мексика, Польша, Норвегия
Студия: Archangel, Breakthru Films, Channel 4 Television Corporation
Продолжительность: 00:33:47
Перевод: Не требуется

Файл
Кодек: x264
Качество: BDRip 1080p (источник: Blu-Ray Remux / 1080p)
Видео: 1920х1080 (16:9), 7000 Kbps, 23.976 fps, 0.141 bit/pixel
Аудио: 48.0 kHz, AC3 Dolby Digital, 3/2 (L,C,R,l,r) + LFE ch, 640 Kbps

Семпл



General
Unique ID : 244316390200252942097637881803006226662 (0xB7CDA00BBD3DC1A3BA75363F9E8330E6)
Complete name : D:Петя и волк.2006.x264.BDRip.1080p.mkv
Format : Matroska
Format version : Version 2
File size : 1.79 GiB
Duration : 33mn 47s
Overall bit rate : 7 565 Kbps
Encoded date : UTC 2012-08-29 16:00:53
Writing application : mkvmerge v5.7.0 ('The Whirlwind') built on Jul 8 2012 20:08:51
Writing library : libebml v1.2.3 + libmatroska v1.3.0

Video
ID : 1
Format : AVC
Format/Info : Advanced Video Codec
Format profile : High@L4.1
Format settings, CABAC : Yes
Format settings, ReFrames : 4 frames
Codec ID : V_MPEG4/ISO/AVC
Duration : 33mn 47s
Bit rate : 7 000 Kbps
Width : 1 920 pixels
Height : 1 080 pixels
Display aspect ratio : 16:9
Frame rate : 23.976 fps
Color space : YUV
Chroma subsampling : 4:2:0
Bit depth : 8 bits
Scan type : Progressive
Bits/(Pixel*Frame) : 0.141
Stream size : 1.60 GiB (90%)
Writing library : x264 core 125 r2208 d9d2288
Encoding settings : cabac=1 / ref=4 / deblock=1:0:0 / analyse=0x3:0x133 / me=umh / subme=11 / psy=1 / psy_rd=1.00:0.10 / mixed_ref=1 / me_range=64 / chroma_me=1 / trellis=2 / 8x8dct=1 / cqm=0 / deadzone=21,11 / fast_pskip=0 / chroma_qp_offset=-3 / threads=6 / lookahead_threads=1 / sliced_threads=0 / nr=0 / decimate=0 / interlaced=0 / bluray_compat=0 / constrained_intra=0 / bframes=5 / b_pyramid=2 / b_adapt=2 / b_bias=0 / direct=3 / weightb=1 / open_gop=0 / weightp=2 / keyint=250 / keyint_min=23 / scenecut=40 / intra_refresh=0 / rc_lookahead=60 / rc=2pass / mbtree=1 / bitrate=7000 / ratetol=1.0 / qcomp=0.60 / qpmin=0 / qpmax=69 / qpstep=4 / cplxblur=20.0 / qblur=0.5 / ip_ratio=1.40 / aq=1:1.00
Language : German
Default : Yes
Forced : No

Audio
ID : 2
Format : AC-3
Format/Info : Audio Coding 3
Mode extension : CM (complete main)
Format settings, Endianness : Big
Codec ID : A_AC3
Duration : 33mn 47s
Bit rate mode : Constant
Bit rate : 640 Kbps
Channel(s) : 6 channels
Channel positions : Front: L C R, Side: L R, LFE
Sampling rate : 48.0 KHz
Bit depth : 16 bits
Compression mode : Lossy
Stream size : 155 MiB (8%)
Title : AC3 5.1 ch 640 kbps
Language : German
Default : Yes
Forced : No



   Похожие торренты   Торрент   Размер 
В этой теме нет новых непрочитанных сообщений. Петя и волк / Peter & the Wolf (2006) BDRip от HQ-ViDEO

4 | 4

745.08 МБ

В этой теме нет новых непрочитанных сообщений. Последний волк / Волк / Majimak Neukdae / Wolf returns / The Last Wolf (2004) DVDRip | L1

4 | 1

1.46 ГБ

В этой теме нет новых непрочитанных сообщений. Волк / Wolf (2013) BDRip 1080p от CINEMANIA | A, L1

107 | 23

15.87 ГБ

В этой теме нет новых непрочитанных сообщений. Волк / Wolf (1994) BDRip 1080p от Freeisland

8 | 4

8.62 ГБ

В этой теме нет новых непрочитанных сообщений. Волк / Wolf (2013) BDRip 1080p от CINEMANIA | L1

87 | 7

14.2 ГБ

В этой теме нет новых непрочитанных сообщений. Сергей Прокофьев - Петя и волк (2004) APE

17 | 2

220.94 МБ

В этой теме нет новых непрочитанных сообщений. Одинокий волк МакКуэйд / Lone Wolf McQuade (1983) BDRip 1080p

3 | 6

5.76 ГБ




Вы не можете начинать темы
Вы не можете отвечать на сообщения
Вы не можете редактировать свои сообщения
Вы не можете удалять свои сообщения
Вы не можете добавлять вложения

Перейти:  
Для Мосгорсуда, Роскомнадзора и рекламодателей: mosgorsud-torrent[собачка]yandex.ru
 Вход
ppkBB3cker v.2 © 2008-2014 @ PPK
[ Time : 0.260s | 15 Queries | GZIP : Off ]

cron