img image001 image001 image001 image001 image001 image001 image001 image001 image001 image001 image001 image001 image001 image001 image001

Planets Sun Sun Sun
Статистика раздачи
Автор: Снежана | Размер: 222.74 МБ | Добавлен: 27 июл 2013
Раздают: 19    Качают: 3
Скачать торрент
Скачать торрент
Описание торрента

СообщениеДобавлено: 27 июл 2013 

#77
Год выпуска: 1997
Страна: Россия
Студия: Аргус Интернейшнл

Жанр: Анимация, рисованный
Продолжительность: 00:22:24

Режиссер: Александр Давыдов (создатель мультфильма "Возвращение блудного попугая")

Описание: Новая версия классической сказки Ш. Перро "Кот в сапогах". После смерти старого мельника младшему сыну в наследство достался только хитрый кот. Старая волшебница подарила сыну мельника волшебные сапоги, но они были на столько малы что подошли только коту. Ловкач решил женить своего хозяина на принцессе. С помощью хитрости он сумел одолеть злого мага и завладеть его замком, а своего хозяина женить на королевской дочке.





Качество: DVDRip
Формат: AVI

Видео: 688x560 (1.23:1), 25 fps, XviD ~ 1250 kbps avg, 0.130 bit/pixel
Аудио: 44.100 kHz, MP3, 2 ch, 128.00 kbps
Общее
Полное имя : Kot.v.sapogakh.1997Kot.v.sapogakh.1997.DVDRip.avi
Формат : AVI
Формат/Информация : Audio Video Interleave
Размер файла : 223 Мбайт
Продолжительность : 22 м.
Режим общего битрейта : Переменный
Общий поток : 1390 Кбит/сек
Программа кодирования : VirtualDubMod 1.5.10.3 | www.virtualdub-fr.org || (build 2550/release)
Библиотека кодирования : VirtualDubMod build 2550/release

Видео
Идентификатор : 0
Формат : MPEG-4 Visual
Профиль формата : Advanced Simple@L5
Параметр BVOP формата : 1
Параметр QPel формата : Нет
Параметр GMC формата : Без точки перехода
Параметр матрицы формата : Выборочная
Идентификатор кодека : XVID
Идентификатор кодека/Подсказка : XviD
Продолжительность : 22 м.
Битрейт : 1250 Кбит/сек
Ширина : 688 пикселей
Высота : 560 пикселей
Соотношение сторон : 1,229
Частота кадров : 25,000 кадров/сек
Цветовое пространство : YUV
Субдискретизация насыщенности : 4:2:0
Битовая глубина : 8 бит
Тип развёртки : Прогрессивная
Метод сжатия : С потерями
Бит/(Пиксели*Кадры) : 0.130
Размер потока : 200 Мбайт (90%)
Библиотека кодирования : XviD 65

Аудио
Идентификатор : 1
Формат : MPEG Audio
Версия формата : Version 1
Профиль формата : Layer 3
Режим : Joint stereo
Расширение режима : MS Stereo
Идентификатор кодека : 55
Идентификатор кодека/Подсказка : MP3
Продолжительность : 22 м.
Вид битрейта : Переменный
Битрейт : 128 Кбит/сек
Каналы : 2 канала
Частота : 44,1 КГц
Метод сжатия : С потерями
Размер потока : 20,5 Мбайт (9%)
Выравнивание : Соединение по промежуткам
Продолжительность промежутка : 26 мс. (0,65 видеокадр)
Время предзагрузки промежутка : 502 мс.
Библиотека кодирования : LAME3.97




Раздача от:



   Похожие торренты   Торрент   Размер 
В этой теме нет новых непрочитанных сообщений. Кот в сапогах (1997) DVDRip-AVC от Youtracker

9 | 2

225.96 МБ

В этой теме нет новых непрочитанных сообщений. Новые похождения кота в сапогах (1958) DVDRip от Youtracker

22 | 5

1.46 ГБ

В этой теме нет новых непрочитанных сообщений. Новые похождения кота в сапогах (1958) DVDRip-AVC от Youtracker

58 | 13

1.46 ГБ

В этой теме нет новых непрочитанных сообщений. ХХL / XXL (1997) DVDRip от Youtracker | P2

3 | 2

745.12 МБ

В этой теме нет новых непрочитанных сообщений. ХХL / XXL (1997) DVDRip от Youtracker | P2

0 | 2

1.46 ГБ

В этой теме нет новых непрочитанных сообщений. Вор (1997) DVDRip от Youtracker

285 | 18

1.45 ГБ

В этой теме нет новых непрочитанных сообщений. ХХL / XXL (1997) DVDRip-AVC от Youtracker | P2

7 | 2

1.46 ГБ




Вы не можете начинать темы
Вы не можете отвечать на сообщения
Вы не можете редактировать свои сообщения
Вы не можете удалять свои сообщения
Вы не можете добавлять вложения

Перейти:  
Для Мосгорсуда, Роскомнадзора и рекламодателей: mosgorsud-torrent[собачка]yandex.ru
 Вход
ppkBB3cker v.2 © 2008-2014 @ PPK
[ Time : 0.040s | 18 Queries | GZIP : Off ]

Торрент трекер RUTOR.IN, Не можете зайти на rutor.org? Какой новый адрес рутор? Какое зеркало рутор? Не работает rutor.org и зеркала? Тогда наш торрент специально для вас. Rutor.in неофициальное зеркало rutor. В случае если у Вас заблокирован rutor или вдруг Вы не можете на него зайти, то Вы без труда сможете скачать бесплатно и без рекламы последние новинки кино, игр, сериалов и прочего у нас, на Rutor.in. Не нужно использовать прокси, чтобы зайти на рутор, достаточно воспользоваться нашим ресурсом. Все новые фильмы, игры, сериалы, книги и музыка за 2013 и 2014 годы через торрент бесплатно. Скачивайте фильмы в хорошем качестве, игры для пк, xbox, playstation без регистрации. У нас вы найдете новые Зарубежные сериалы и Русские сериалы 2013, 2014, 2015 годов. Оставайтесь с нами, качайте любимые фильмы, игры, сериалы, книги и музыку.
cron