img image001 image001 image001 image001 image001 image001 image001 image001 image001 image001 image001 image001 image001 image001 image001

Planets Sun Sun Sun
Статистика раздачи
Автор: Снежана | Размер: 225.96 МБ | Добавлен: 27 июл 2013
Раздают: 9    Качают: 2
Скачать торрент
Скачать торрент
Описание торрента

СообщениеДобавлено: 27 июл 2013 

#77
Год выпуска: 1997
Страна: Россия
Студия: Аргус Интернейшнл

Жанр: Анимация, рисованный
Продолжительность: 00:22:24

Режиссер: Александр Давыдов (создатель мультфильма "Возвращение блудного попугая")

Описание: Новая версия классической сказки Ш. Перро "Кот в сапогах". После смерти старого мельника младшему сыну в наследство достался только хитрый кот. Старая волшебница подарила сыну мельника волшебные сапоги, но они были на столько малы что подошли только коту. Ловкач решил женить своего хозяина на принцессе. С помощью хитрости он сумел одолеть злого мага и завладеть его замком, а своего хозяина женить на королевской дочке.





Качество: DVDRip-AVC
Формат: MKV

Видео: 696x566 (1.23:1), 25 fps, H264 ~ 1280 kbps avg, 0.130 bit/pixel
Аудио: 44.100 kHz, MP3, 2 ch, 128.00 kbps
Общее
Полное имя : Kot.v.sapogakh.1997Kot.v.sapogakh.1997.DVDRip-AVC.mkv
Формат : Matroska
Версия формата : Version 2
Размер файла : 226 Мбайт
Продолжительность : 22 м.
Общий поток : 1410 Кбит/сек
Название фильма : Kot.v.sapogakh.1997.DVDRip-AVC AVP Studio
Дата кодирования : UTC 2012-06-08 08:09:50
Программа кодирования : mkvmerge v5.6.0 ('Kenya Kane') built on May 27 2012 16:44:04
Библиотека кодирования : libebml v1.2.3 + libmatroska v1.3.0

Видео
Идентификатор : 1
Формат : AVC
Формат/Информация : Advanced Video Codec
Профиль формата : High@L4.1
Параметр CABAC формата : Да
Параметр ReFrames формата : 11 кадров
Идентификатор кодека : V_MPEG4/ISO/AVC
Продолжительность : 22 м.
Битрейт : 1280 Кбит/сек
Ширина : 696 пикселей
Высота : 566 пикселей
Соотношение сторон : 5:4
Частота кадров : 25,000 кадров/сек
Цветовое пространство : YUV
Субдискретизация насыщенности : 4:2:0
Битовая глубина : 8 бит
Тип развёртки : Прогрессивная
Бит/(Пиксели*Кадры) : 0.130
Размер потока : 201 Мбайт (89%)
Заголовок : Источник DVD
Библиотека кодирования : x264 core 119 r2106 07efeb4
Настройки программы : cabac=1 / ref=11 / deblock=1:-2:-1 / analyse=0x3:0x113 / me=umh / subme=9 / psy=1 / psy_rd=1.00:0.20 / mixed_ref=1 / me_range=32 / chroma_me=1 / trellis=1 / 8x8dct=1 / cqm=0 / deadzone=21,11 / fast_pskip=0 / chroma_qp_offset=-3 / threads=3 / sliced_threads=0 / nr=0 / decimate=0 / interlaced=0 / bluray_compat=0 / constrained_intra=0 / bframes=8 / b_pyramid=2 / b_adapt=2 / b_bias=0 / direct=3 / weightb=1 / open_gop=0 / weightp=2 / keyint=250 / keyint_min=25 / scenecut=40 / intra_refresh=0 / rc_lookahead=60 / rc=2pass / mbtree=1 / bitrate=1280 / ratetol=1.0 / qcomp=0.60 / qpmin=0 / qpmax=69 / qpstep=4 / cplxblur=20.0 / qblur=0.5 / ip_ratio=1.40 / aq=1:1.00
Язык : Russian
Default : Да
Forced : Нет

Аудио
Идентификатор : 2
Формат : MPEG Audio
Версия формата : Version 1
Профиль формата : Layer 3
Режим : Joint stereo
Расширение режима : MS Stereo
Идентификатор кодека : A_MPEG/L3
Идентификатор кодека/Подсказка : MP3
Продолжительность : 22 м.
Вид битрейта : Постоянный
Битрейт : 128 Кбит/сек
Каналы : 2 канала
Частота : 44,1 КГц
Метод сжатия : С потерями
Размер потока : 20,5 Мбайт (9%)
Заголовок : Источник DVD
Библиотека кодирования : LAME3.97
Язык : Russian
Default : Да
Forced : Нет




Раздача от:



   Похожие торренты   Торрент   Размер 
В этой теме нет новых непрочитанных сообщений. Кот в сапогах (1997) DVDRip от Youtracker

19 | 3

222.74 МБ

В этой теме нет новых непрочитанных сообщений. Новые похождения кота в сапогах (1958) DVDRip от Youtracker

22 | 5

1.46 ГБ

В этой теме нет новых непрочитанных сообщений. Новые похождения кота в сапогах (1958) DVDRip-AVC от Youtracker

58 | 13

1.46 ГБ

В этой теме нет новых непрочитанных сообщений. ХХL / XXL (1997) DVDRip от Youtracker | P2

0 | 2

1.46 ГБ

В этой теме нет новых непрочитанных сообщений. Вор (1997) DVDRip от Youtracker

285 | 18

1.45 ГБ

В этой теме нет новых непрочитанных сообщений. ХХL / XXL (1997) DVDRip от Youtracker | P2

3 | 2

745.12 МБ

В этой теме нет новых непрочитанных сообщений. ХХL / XXL (1997) DVDRip-AVC от Youtracker | P2

7 | 2

1.46 ГБ




Вы не можете начинать темы
Вы не можете отвечать на сообщения
Вы не можете редактировать свои сообщения
Вы не можете удалять свои сообщения
Вы не можете добавлять вложения

Перейти:  
Для Мосгорсуда, Роскомнадзора и рекламодателей: mosgorsud-torrent[собачка]yandex.ru
 Вход
ppkBB3cker v.2 © 2008-2014 @ PPK
[ Time : 1.561s | 14 Queries | GZIP : Off ]

Торрент трекер RUTOR.IN, Не можете зайти на rutor.org? Какой новый адрес рутор? Какое зеркало рутор? Не работает rutor.org и зеркала? Тогда наш торрент специально для вас. Rutor.in неофициальное зеркало rutor. В случае если у Вас заблокирован rutor или вдруг Вы не можете на него зайти, то Вы без труда сможете скачать бесплатно и без рекламы последние новинки кино, игр, сериалов и прочего у нас, на Rutor.in. Не нужно использовать прокси, чтобы зайти на рутор, достаточно воспользоваться нашим ресурсом. Все новые фильмы, игры, сериалы, книги и музыка за 2013 и 2014 годы через торрент бесплатно. Скачивайте фильмы в хорошем качестве, игры для пк, xbox, playstation без регистрации. У нас вы найдете новые Зарубежные сериалы и Русские сериалы 2013, 2014, 2015 годов. Оставайтесь с нами, качайте любимые фильмы, игры, сериалы, книги и музыку.