img image001 image001 image001 image001 image001 image001 image001 image001 image001 image001 image001 image001 image001 image001 image001

Planets Sun Sun Sun
Статистика раздачи
Автор: Снежана | Размер: 1.5 ГБ | Добавлен: 27 июл 2013
Раздают: 50    Качают: 4
Скачать торрент
Скачать торрент
Описание торрента

СообщениеДобавлено: 27 июл 2013 

Торрент файл перезалит 1 сентября 2012 года, HDRip заменен на BDRip
#77

Страна: США
Жанр: мультфильм, фантастика, боевик
Год выпуска: 2012
Продолжительность: 01:28:13

Перевод: Профессиональный (многоголосый) лицензия
Cубтитры: нет
Оригинальная аудиодорожка: нет

Режиссер: Синдзи Арамаки / Sindzi Armaki

Описание: После того, как был покинут отдаленный форпост Федерации, Форт Кейси, Карл Дженкинс отправляется на разведку и исчезает в туманности. Закаленные во множественных боях солдаты могут своими действиями принести на Землю смерть человечества, а могут и наоборот его спасти. Третьего не дано.





Исходник: BDRemux 1080p
Качество: BDRip
Формат: AVI

Видео: 720x400 (16:9), 23.976 fps, XVID ~ 1955 kbps avg, 0.283 bit/pixel
Аудио: 48 kHz, AC3, 6 ch, 448 kbps

Раздача от:

Общее
Полное имя : Zvezdnuy.Desant.Vtorjenie.2012.P.BDRip_[Youtracker]_by_avproh.avi
Формат : AVI
Формат/Информация : Audio Video Interleave
Размер файла : 1,50 Гбайт
Продолжительность : 1 ч. 28 м.
Общий поток : 2413 Кбит/сек
Программа кодирования : VirtualDubMod 1.5.10.3 (build 2550/release)
Библиотека кодирования : VirtualDubMod build 2550/release

Видео
Идентификатор : 0
Формат : MPEG-4 Visual
Профиль формата : Advanced Simple@L5
Параметр BVOP формата : 1
Параметр QPel формата : Нет
Параметр GMC формата : Без точки перехода
Параметр матрицы формата : Выборочная
Идентификатор кодека : XVID
Идентификатор кодека/Подсказка : XviD
Продолжительность : 1 ч. 28 м.
Битрейт : 1955 Кбит/сек
Ширина : 720 пикселей
Высота : 400 пикселей
Соотношение сторон : 16:9
Частота кадров : 23,976 кадра/сек
Цветовое пространство : YUV
Субдискретизация насыщенности : 4:2:0
Битовая глубина : 8 бит
Тип развёртки : Прогрессивная
Метод сжатия : С потерями
Бит/(Пиксели*Кадры) : 0.283
Размер потока : 1,21 Гбайт (81%)
Библиотека кодирования : XviD 65

Аудио
Идентификатор : 1
Формат : AC-3
Формат/Информация : Audio Coding 3
Расширение режима : CM (complete main)
Параметр Endianness формата : Big
Идентификатор кодека : 2000
Продолжительность : 1 ч. 28 м.
Вид битрейта : Постоянный
Битрейт : 448 Кбит/сек
Каналы : 6 каналов
Расположение каналов : Front: L C R, Side: L R, LFE
Частота : 48,0 КГц
Битовая глубина : 16 бит
Метод сжатия : С потерями
Размер потока : 285 Мбайт (19%)
Выравнивание : Разделение по промежуткам
Продолжительность промежутка : 42 мс. (1,00 видеокадр)
Время предзагрузки промежутка : 500 мс.





   Похожие торренты   Торрент   Размер 
В этой теме нет новых непрочитанных сообщений. Звездный десант: Вторжение / Starship Troopers: Invasion (2011) BDRip от Youtracker

7 | 8

745.03 МБ

В этой теме нет новых непрочитанных сообщений. Звездный десант: Вторжение / Starship Troopers: Invasion (2011) DVD9 R5 от Youtracker | Лицензия

14 | 3

6.85 ГБ

В этой теме нет новых непрочитанных сообщений. Звездный десант: Вторжение / Starship Troopers: Invasion (2011) Blu-Ray

1 | 3

37.77 ГБ

В этой теме нет новых непрочитанных сообщений. Звездный десант: Вторжение / Starship Troopers: Invasion (2012) BDRip-AVC от ExKinoRay | P

34 | 0

746.33 МБ

В этой теме нет новых непрочитанных сообщений. Звездный десант: Вторжение / Starship Troopers: Invasion (2012) BDRip от HQCLUB

94 | 13

1.45 ГБ

В этой теме нет новых непрочитанных сообщений. Звездный десант: Вторжение / Starship Troopers: Invasion (2012) BDRip 720p

51 | 8

3.99 ГБ

В этой теме нет новых непрочитанных сообщений. Звездный десант: Вторжение / Starship Troopers: Invasion (2012) BDRip 1080p

151 | 24

5.76 ГБ




Вы не можете начинать темы
Вы не можете отвечать на сообщения
Вы не можете редактировать свои сообщения
Вы не можете удалять свои сообщения
Вы не можете добавлять вложения

Перейти:  
Для Мосгорсуда, Роскомнадзора и рекламодателей: mosgorsud-torrent[собачка]yandex.ru
cron
 Вход
ppkBB3cker v.2 © 2008-2014 @ PPK
[ Time : 0.028s | 15 Queries | GZIP : Off ]

cron