img image001 image001 image001 image001 image001 image001 image001 image001 image001 image001 image001 image001 image001 image001 image001

Planets Sun Sun Sun
Статистика раздачи
Автор: Снежана | Размер: 1.45 ГБ | Добавлен: 27 июл 2013
Раздают: 12    Качают: 3
Скачать торрент
Скачать торрент
Описание торрента

СообщениеДобавлено: 27 июл 2013 

#77
Год выпуска: 2002
Страна: США
Киностудия: DiC Enterprises

Жанр: Комедия, Фантастика, Расследования
Продолжительность: 01:10:49

Перевод: Профессиональный (многоголосый закадровый)
Субтитры: нет
Оригинальная аудиодорожка: английский

Режиссер: Майкл Малиани / Michael Maliani

Роли озвучивали: Brendan Beiser, Кимберли Хоторн, Дэйл Уилсон, Дж. Уайт, Ричард Ньюман, Колин Мёрдок, Теган Мосс, Блу Манкума, Брайан Драммонд, Майкл Добсон, Джим Бернс, Тина Буш, Морис ЛаМарш...

Описание: Самый грозный борец с преступностью снова сражается с коварным и злобным Доктором Когтем. Но только теперь инспектор Гаджет не может гоняться за этим супер злодеем на своем любимом гаджетмобиле, который угодил на свалку. А если Доктор Коготь применит свое новое секретное оружие, инспектор Гаджет попадет туда следующим...





Исходник: DVD5 (сustom)
Тип релиза: DVDRip
Контейнер: AVI

Видео: 688x528 (1,303:1), 25 fps, XviD MPEG-4 ~ 2338 kbps avg, 0.257 bit/pixel
Аудио 1: 48 kHz, AC3, 2 ch, 192.00 kbps, Русский
Аудио 2: 48 kHz, AC3, 2 ch, 192.00 kbps, Английский
Аудио 3: 48 kHz, AC3, 2 ch, 192.00 kbps, Испанский
Общее
Общее
Полное имя : Poslednee.delo.inspektora.Gadzheta.2002.DVDRip.avi
Формат : AVI
Формат/Информация : Audio Video Interleave
Размер файла : 1,45 Гбайт
Продолжительность : 1 ч. 10 м.
Общий поток : 2933 Кбит/сек
Программа кодирования : VirtualDubModRus 1.5.10.2 (build 2542/release)
Библиотека кодирования : VirtualDubMod build 2542/release

Видео
Идентификатор : 0
Формат : MPEG-4 Visual
Профиль формата : Advanced Simple@L5
Параметр BVOP формата : 1
Параметр QPel формата : Нет
Параметр GMC формата : Без точки перехода
Параметр матрицы формата : Выборочная
Идентификатор кодека : XVID
Идентификатор кодека/Подсказка : XviD
Продолжительность : 1 ч. 10 м.
Битрейт : 2338 Кбит/сек
Ширина : 688 пикселей
Высота : 528 пикселей
Соотношение сторон : 4:3
Частота кадров : 25,000 кадров/сек
Цветовое пространство : YUV
Субдискретизация насыщенности : 4:2:0
Битовая глубина : 8 бит
Тип развёртки : Прогрессивная
Метод сжатия : С потерями
Бит/(Пиксели*Кадры) : 0.257
Размер потока : 1,16 Гбайт (80%)
Библиотека кодирования : XviD 1.2.1 (UTC 2008-12-04)

Аудио #1
Идентификатор : 1
Формат : AC-3
Формат/Информация : Audio Coding 3
Расширение режима : CM (complete main)
Идентификатор кодека : 2000
Продолжительность : 1 ч. 10 м.
Вид битрейта : Постоянный
Битрейт : 192 Кбит/сек
Каналы : 2 канала
Расположение каналов : Front: L R
Частота : 48,0 КГц
Битовая глубина : 16 бит
Метод сжатия : С потерями
Размер потока : 97,1 Мбайт (7%)
Выравнивание : Разделение по промежуткам
Продолжительность промежутка : 40 мс. (1,00 видеокадр)
Время предзагрузки промежутка : 500 мс.

Аудио #2
Идентификатор : 2
Формат : AC-3
Формат/Информация : Audio Coding 3
Расширение режима : CM (complete main)
Идентификатор кодека : 2000
Продолжительность : 1 ч. 10 м.
Вид битрейта : Постоянный
Битрейт : 192 Кбит/сек
Каналы : 2 канала
Расположение каналов : Front: L R
Частота : 48,0 КГц
Битовая глубина : 16 бит
Метод сжатия : С потерями
Размер потока : 97,3 Мбайт (7%)
Выравнивание : Разделение по промежуткам
Продолжительность промежутка : 40 мс. (1,00 видеокадр)
Время предзагрузки промежутка : 500 мс.

Аудио #3
Идентификатор : 3
Формат : AC-3
Формат/Информация : Audio Coding 3
Расширение режима : CM (complete main)
Идентификатор кодека : 2000
Продолжительность : 1 ч. 10 м.
Вид битрейта : Постоянный
Битрейт : 192 Кбит/сек
Каналы : 2 канала
Расположение каналов : Front: L R
Частота : 48,0 КГц
Битовая глубина : 16 бит
Метод сжатия : С потерями
Размер потока : 97,3 Мбайт (7%)
Выравнивание : Разделение по промежуткам
Продолжительность промежутка : 40 мс. (1,00 видеокадр)
Время предзагрузки промежутка : 500 мс.




Раздача от:



   Похожие торренты   Торрент   Размер 
В этой теме нет новых непрочитанных сообщений. Последнее дело инспектора Гаджета / Inspector Gadget's Last Case: Claw's Revenge (2002) DVD5 от Youtracker

3 | 3

3.73 ГБ

В этой теме нет новых непрочитанных сообщений. Инспектор Гаджет / Inspector Gadget (1999) DVDRip-AVC от Youtracker | D, P, A

45 | 10

1.46 ГБ

В этой теме нет новых непрочитанных сообщений. Инспектор Гаджет / Inspector Gadget (1999) DVDRip от Youtracker | D, P, A

14 | 5

1.46 ГБ

В этой теме нет новых непрочитанных сообщений. Инспектор Гаджет / Inspector Gadget (1999) DVD5 от Youtracker | D, P, A | custom

0 | 3

4.36 ГБ

В этой теме нет новых непрочитанных сообщений. Визит инспектора / An Inspector Calls (1954) DVDRip от Pshichko66 | P

50 | 14

1.07 ГБ

В этой теме нет новых непрочитанных сообщений. Инспектор Гаджет / Inspector Gadget (1999) DVDRip от RP4 CHG

141 | 4

701.64 МБ

В этой теме нет новых непрочитанных сообщений. Инспектор Гаджет / Inspector Gadget's Biggest Caper Ever (2005) DVDRip от NovaLan

5 | 1

1.06 ГБ




Вы не можете начинать темы
Вы не можете отвечать на сообщения
Вы не можете редактировать свои сообщения
Вы не можете удалять свои сообщения
Вы не можете добавлять вложения

Перейти:  
Для Мосгорсуда, Роскомнадзора и рекламодателей: mosgorsud-torrent[собачка]yandex.ru
 Вход
ppkBB3cker v.2 © 2008-2014 @ PPK
[ Time : 0.028s | 14 Queries | GZIP : Off ]

Торрент трекер RUTOR.IN, Не можете зайти на rutor.org? Какой новый адрес рутор? Какое зеркало рутор? Не работает rutor.org и зеркала? Тогда наш торрент специально для вас. Rutor.in неофициальное зеркало rutor. В случае если у Вас заблокирован rutor или вдруг Вы не можете на него зайти, то Вы без труда сможете скачать бесплатно и без рекламы последние новинки кино, игр, сериалов и прочего у нас, на Rutor.in. Не нужно использовать прокси, чтобы зайти на рутор, достаточно воспользоваться нашим ресурсом. Все новые фильмы, игры, сериалы, книги и музыка за 2013 и 2014 годы через торрент бесплатно. Скачивайте фильмы в хорошем качестве, игры для пк, xbox, playstation без регистрации. У нас вы найдете новые Зарубежные сериалы и Русские сериалы 2013, 2014, 2015 годов. Оставайтесь с нами, качайте любимые фильмы, игры, сериалы, книги и музыку.