img image001 image001 image001 image001 image001 image001 image001 image001 image001 image001 image001 image001 image001 image001 image001

Planets Sun Sun Sun
Статистика раздачи
Автор: Снежана | Размер: 4.02 ГБ | Добавлен: 27 июл 2013
Раздают: 3    Качают: 3
Скачать торрент
Скачать торрент
Описание торрента

СообщениеДобавлено: 27 июл 2013 

#77

Информация о фильме
Название: Зарафа
Оригинальное название: Zarafa
Год выхода: 2012
Жанр: мультфильм, семейный
Режиссер: Реми Безансон, Жан-Кристоф Ли
О фильме:
Судан, 19-й век. Десятилетний мальчик Маки cбегает от захватившего его французского работорговца и находит друга - молодую жирафу, оставшуюся сиротой и, к сожалению, предназначенную стать подарком королю Франции Карлу X, в обмен на его поддержку в войне против турков, осадивших Александрию...
Мультфильм, снятый в формате 2D и вышедший на экраны в 2012 году, является вольной интерпретацией реальной истории: прибытия во Францию первого жирафа в 1826 году, подаренного пашой Египта Мухаммедом Али - королю Шарлю X, чтобы обогатить коллекцию животных королевского Ботанического Сада, что вызвало в стране настоящую "жирафоманию".
Авторы ленты - Реми Безансон, известный по фильму "Первый день остатка твоей жизни", и Жан-Кристоф Ли, создатель мультфильмов "Трио из Бельвиля" и "Кирику и дикие звери" - рассказывают нам замечательную умную сказку, наполненную захватывающими приключениями и сильными эмоциями на фоне картин жестокой колониальной эпохи.
Простую и элегантную графику обрамляет чудесная музыка Лорена Переза, навеянная темой из фильма "Лоуренс Аравийский", что делает этот фильм одинаково интересным и поучительным для всей семьи.

Перевод описания: Татьяна Фалимонова.



Страна: ]Франция , Бельгия
Студия: Chaocorp, France 3 Cinéma
Продолжительность: 01:18:33
Перевод:
Авторский (одноголосый закадровый) Юрий Сербин
Любительский (двухголосый закадровый) Компания АнВад

Файл
Кодек: H.264
Качество: BDRip 1080p
Видео: AVC, 1920x816 (2.35:1), 6048 kbps, 24 fps, 0,161 bpp
Звук:
русский / AC3 / 5.1 / 48 kHz / 640 kbps / 16 bit
русский / AC3 / 5.1 / 48 kHz / 640 kbps / 16 bit
Субтитры: русские (srt)

Общее
Уникальный идентификатор : 247062606432712499850657784133095618672 (0xB9DE86F5B556B8A281F555709BF57870)
Полное имя : E:торрентZarafa (2012) BDRip -F.HD.mkv
Формат : Matroska
Версия формата : Version 2
Размер файла : 4,02 Гбайт
Продолжительность : 1 ч. 18 м.
Общий поток : 7329 Кбит/сек
Дата кодирования : UTC 2012-09-04 15:35:55
Программа кодирования : mkvmerge v5.4.0 ('Piper') built on Mar 10 2012 13:34:39
Библиотека кодирования : libebml v1.2.3 + libmatroska v1.3.0

Видео
Идентификатор : 1
Формат : AVC
Формат/Информация : Advanced Video Codec
Профиль формата : High@L4.1
Параметр CABAC формата : Да
Параметр ReFrames формата : 5 кадров
Идентификатор кодека : V_MPEG4/ISO/AVC
Продолжительность : 1 ч. 18 м.
Битрейт : 6048 Кбит/сек
Ширина : 1920 пикселей
Высота : 816 пикселей
Соотношение сторон : 2,35:1
Режим частоты кадров : Постоянный
Частота кадров : 24,000 кадра/сек
Цветовое пространство : YUV
Субдискретизация насыщенности : 4:2:0
Битовая глубина : 8 бит
Тип развёртки : Прогрессивная
Бит/(Пиксели*Кадры) : 0.161
Размер потока : 3,24 Гбайт (81%)
Библиотека кодирования : x264 core 125 r2208 d9d2288
Настройки программы : cabac=1 / ref=5 / deblock=1:-2:-2 / analyse=0x3:0x113 / me=umh / subme=11 / psy=1 / psy_rd=0.80:0.00 / mixed_ref=1 / me_range=32 / chroma_me=1 / trellis=2 / 8x8dct=1 / cqm=0 / deadzone=21,11 / fast_pskip=0 / chroma_qp_offset=2 / threads=6 / lookahead_threads=1 / sliced_threads=0 / nr=0 / decimate=1 / interlaced=0 / bluray_compat=0 / constrained_intra=0 / bframes=9 / b_pyramid=2 / b_adapt=2 / b_bias=0 / direct=3 / weightb=1 / open_gop=0 / weightp=2 / keyint=240 / keyint_min=24 / scenecut=40 / intra_refresh=0 / rc=2pass / mbtree=0 / bitrate=6048 / ratetol=1.0 / qcomp=0.70 / qpmin=0 / qpmax=69 / qpstep=4 / cplxblur=20.0 / qblur=0.5 / ip_ratio=1.40 / pb_ratio=1.30 / aq=2:0.70
Язык : English
Default : Да
Forced : Нет
Основные цвета : BT.709
Характеристики трансфера : BT.709
Коэффициенты матрицы : BT.709

Аудио #1
Идентификатор : 2
Формат : AC-3
Формат/Информация : Audio Coding 3
Расширение режима : CM (complete main)
Параметр Endianness формата : Big
Идентификатор кодека : A_AC3
Продолжительность : 1 ч. 18 м.
Вид битрейта : Постоянный
Битрейт : 640 Кбит/сек
Каналы : 6 каналов
Расположение каналов : Front: L C R, Side: L R, LFE
Частота : 48,0 КГц
Битовая глубина : 16 бит
Метод сжатия : С потерями
Размер потока : 360 Мбайт (9%)
Заголовок : AVO.Ю.Сербин
Язык : Russian
Default : Да
Forced : Нет

Аудио #2
Идентификатор : 3
Формат : AC-3
Формат/Информация : Audio Coding 3
Расширение режима : CM (complete main)
Параметр Endianness формата : Big
Идентификатор кодека : A_AC3
Продолжительность : 1 ч. 18 м.
Вид битрейта : Постоянный
Битрейт : 640 Кбит/сек
Каналы : 6 каналов
Расположение каналов : Front: L C R, Side: L R, LFE
Частота : 48,0 КГц
Битовая глубина : 16 бит
Метод сжатия : С потерями
Размер потока : 360 Мбайт (9%)
Заголовок : DVO (АнВад)
Язык : Russian
Default : Нет
Forced : Нет

Текст
Идентификатор : 4
Формат : UTF-8
Идентификатор кодека : S_TEXT/UTF8
Идентификатор кодека/Информация : UTF-8 Plain Text
Язык : Russian
Default : Нет
Forced : Нет

Меню
00:00:00.000 : en:Chapter 01
00:09:27.583 : en:Chapter 02
00:15:48.125 : en:Chapter 03
00:21:48.666 : en:Chapter 04
00:26:28.083 : en:Chapter 05
00:32:46.208 : en:Chapter 06
00:39:47.500 : en:Chapter 07
00:49:37.666 : en:Chapter 08
00:58:24.291 : en:Chapter 09
01:02:33.708 : en:Chapter 10
01:09:56.166 : en:Chapter 11
01:13:39.707 : en:Chapter 12
01:18:32.791 : en:Chapter 13




Релиз от:



   Похожие торренты   Торрент   Размер 
В этой теме нет новых непрочитанных сообщений. Зарафа / Zarafa (2012) Blu-Ray Remux 1080p | L2

0 | 2

10.86 ГБ

В этой теме нет новых непрочитанных сообщений. Зарафа / Zarafa (2012) BDRip | КПК от Generalfilm

12 | 2

269.47 МБ

В этой теме нет новых непрочитанных сообщений. Зарафа / Zarafa (2012) BDRip-AVC от olegek70

4 | 2

1.57 ГБ

В этой теме нет новых непрочитанных сообщений. Зарафа / Zarafa (2012) BDRip 720p от olegek70

3 | 3

2.11 ГБ

В этой теме нет новых непрочитанных сообщений. Зарафа / Zarafa (2012) HDRip | L2

1 | 2

1.35 ГБ

В этой теме нет новых непрочитанных сообщений. Зарафа / Zarafa (2012) HDRip | L2

16 | 2

745.48 МБ

В этой теме нет новых непрочитанных сообщений. Зарафа / Zarafa (2012) HDRip

5 | 4

1.35 ГБ




Вы не можете начинать темы
Вы не можете отвечать на сообщения
Вы не можете редактировать свои сообщения
Вы не можете удалять свои сообщения
Вы не можете добавлять вложения

Перейти:  
Для Мосгорсуда, Роскомнадзора и рекламодателей: mosgorsud-torrent[собачка]yandex.ru
 Вход
ppkBB3cker v.2 © 2008-2014 @ PPK
[ Time : 0.037s | 16 Queries | GZIP : On ]

Торрент трекер RUTOR.IN, Не можете зайти на rutor.org? Какой новый адрес рутор? Какое зеркало рутор? Не работает rutor.org и зеркала? Тогда наш торрент специально для вас. Rutor.in неофициальное зеркало rutor. В случае если у Вас заблокирован rutor или вдруг Вы не можете на него зайти, то Вы без труда сможете скачать бесплатно и без рекламы последние новинки кино, игр, сериалов и прочего у нас, на Rutor.in. Не нужно использовать прокси, чтобы зайти на рутор, достаточно воспользоваться нашим ресурсом. Все новые фильмы, игры, сериалы, книги и музыка за 2013 и 2014 годы через торрент бесплатно. Скачивайте фильмы в хорошем качестве, игры для пк, xbox, playstation без регистрации. У нас вы найдете новые Зарубежные сериалы и Русские сериалы 2013, 2014, 2015 годов. Оставайтесь с нами, качайте любимые фильмы, игры, сериалы, книги и музыку.