img image001 image001 image001 image001 image001 image001 image001 image001 image001 image001 image001 image001 image001 image001 image001

Planets Sun Sun Sun
Статистика раздачи
Автор: Снежана | Размер: 8.73 ГБ | Добавлен: 27 июл 2013
Раздают: 375    Качают: 26
Скачать торрент
Скачать торрент
Описание торрента

СообщениеДобавлено: 27 июл 2013 

#77
Страна: США
Жанр: мультфильм, фантастика, боевик, семейный
Год выпуска: 2011
Продолжительность: ~ 00:22:00 x 26 эпизодов

Перевод: Профессиональный (дублированный) лицензия
Cубтитры: русский
Оригинальная аудиодорожка: нет

Режиссер: Винтон Хёк, Сайро Нили, Фрэнк Пор / Vinton Heuck, Ciro Nieli, Frank Paur

В ролях: Эрик Лумис, Брайан Блум, Коллин О’Шонесси, Рик Д. Вассерман, Крис Кокс, Фред Татаскьор, Джеймс С. Мэтис III, Уолли Вингерт, Фил ЛаМарр, Алекс Десерт...

Описание: Неизвестная сила наносит удар по четырем тюрьмам для сверхлюдей, и десятки опаснейших суперзлодеев вырываются на свободу. Самые могучие супергерои объединяются в альянс под названием Мстители, чтобы вернуть вырвавшееся на свободу зло за решетку…





Качество видео: DVDRip-AVC
Формат видео: MKV

Видео: 720x576 (16:9), 25 fps, H264 ~ 1986 kbps avg, 0.192 bit/pixel
Аудио: 48 kHz, AC3, 2 ch, 192.00 kbps Русский
Диск 1:
1. Железный Человек начало - 22 сентября 2010 года
2. Могучий Тор - 24 октября 2010 года
3. Халк Против всех - 24 октября 2010 года
4. Встретить Капитана Америка - 24 октября 2010 года
5. Человек в муравейнике - 24 октября 2010 года
6. Побег: Часть 1 - 20 октября 2010 года
7. Побег: Часть 2 - 20 октября 2010 года
8. Нуждается в сборке - 27 октября 2010 года
9. Живая Легенда - 3 ноября 2010 года
10. Все Замечательно - 10 ноября 2010 года
11. Путь "Пантеры" - 17 ноября 2010 года
12. Гамма Мир, Часть 1 - 26 ноября 2010 года
13. Гамма Мир, Часть 2 - 26 ноября 2010 года

Диск 2:
14. Мастера Зла - 5 декабря 2010 года
15. Часовой № 459 - 12 декабря 2010 года
16. Укравший завтрашний день - 19 декабря 2010 года
17. Вторжение Канга - 9 января 2011 года
18. Династия Канг - 16 января 2011 года
19. Жало вдовы - 23 января 2011 года
20. Ларец Древнейших Зим - 3 апреля 2011 года
21. Слава Гидре! - 4 апреля 2011 года
22. Ультрон пять - 5 апреля 2011 года
23. Задача Ультрона - 6 апреля 2011 года
24. Земля в заложниках - 7 апреля 2011 года
25. Падение Асгарда - 11 апреля 2011 года
26. День, каких не было - 12 апреля 2011

Общее
Полное имя : Mstiteli.mult.2011.D.DVDRip-AVC_[Youtracker]_by_AVP Studio.mkv
Формат : Matroska
Версия формата : Version 2
Размер файла : 346 Мбайт
Продолжительность : 22 м.
Общий поток : 2181 Кбит/сек
Дата кодирования : UTC 2012-09-03 01:47:08
Программа кодирования : mkvmerge v5.0.1 ('Es ist Sommer') built on Nov 6 2011 16:23:40
Библиотека кодирования : libebml v1.2.2 + libmatroska v1.3.0

Видео
Идентификатор : 1
Формат : AVC
Формат/Информация : Advanced Video Codec
Профиль формата : High@L4.1
Параметр CABAC формата : Да
Параметр ReFrames формата : 11 кадров
Идентификатор кодека : V_MPEG4/ISO/AVC
Продолжительность : 22 м.
Битрейт : 1986 Кбит/сек
Ширина : 720 пикселей
Высота : 576 пикселей
Соотношение сторон : 16:9
Частота кадров : 25,000 кадров/сек
Стандарт вещания : PAL
Цветовое пространство : YUV
Субдискретизация насыщенности : 4:2:0
Битовая глубина : 8 бит
Тип развёртки : Прогрессивная
Бит/(Пиксели*Кадры) : 0.192
Размер потока : 308 Мбайт (89%)
Библиотека кодирования : x264 core 119 r2106 07efeb4
Настройки программы : cabac=1 / ref=11 / deblock=1:0:0 / analyse=0x3:0x113 / me=umh / subme=10 / psy=1 / psy_rd=1.00:0.20 / mixed_ref=1 / me_range=32 / chroma_me=1 / trellis=2 / 8x8dct=1 / cqm=0 / deadzone=21,11 / fast_pskip=0 / chroma_qp_offset=-3 / threads=6 / sliced_threads=0 / nr=0 / decimate=0 / interlaced=0 / bluray_compat=0 / constrained_intra=0 / bframes=8 / b_pyramid=2 / b_adapt=2 / b_bias=0 / direct=3 / weightb=1 / open_gop=0 / weightp=2 / keyint=250 / keyint_min=25 / scenecut=40 / intra_refresh=0 / rc_lookahead=60 / rc=2pass / mbtree=1 / bitrate=1986 / ratetol=1.0 / qcomp=0.60 / qpmin=0 / qpmax=69 / qpstep=4 / cplxblur=20.0 / qblur=0.5 / ip_ratio=1.40 / aq=1:1.00
Default : Да
Forced : Нет

Аудио
Идентификатор : 2
Формат : AC-3
Формат/Информация : Audio Coding 3
Профиль формата : Dolby Digital
Расширение режима : CM (complete main)
Идентификатор кодека : A_AC3
Продолжительность : 22 м.
Вид битрейта : Постоянный
Битрейт : 192 Кбит/сек
Каналы : 2 канала
Расположение каналов : Front: L R
Частота : 48,0 КГц
Битовая глубина : 16 бит
Метод сжатия : С потерями
Размер потока : 30,4 Мбайт (9%)
Default : Да
Forced : Нет



Раздача от:



   Похожие торренты   Торрент   Размер 
В этой теме нет новых непрочитанных сообщений. Мстители: Величайшие герои Земли / The Avengers: Earth's Mightiest Heroes [01x01-26] (2011) DVDRip от Youtracker | D

21 | 5

8.75 ГБ

В этой теме нет новых непрочитанных сообщений. Мстители: Величайшие герои Земли / The Avengers: Earth's Mightiest Heroes [01x01-26] (2011) 4xDVD9 от Youtracker | лицензия

0 | 15

26.11 ГБ

В этой теме нет новых непрочитанных сообщений. Мстители: Величайшие Герои Земли / The Avengers: Earth's Mightiest Heroes [02x01-26 из 26] (2012) DVB | CTC

2 | 7

24.88 ГБ

В этой теме нет новых непрочитанных сообщений. Мстители: Величайшие герои Земли / The Avengers: Earth's Mightiest Heroes [01-02x01-52 ] (2010-2012) 8 x DVD9 от New-Team | D | Лицензия

27 | 27

57.2 ГБ

В этой теме нет новых непрочитанных сообщений. Мстители: Величайшие Герои Земли / The Avengers: Earth's Mightiest Heroes [02x01-09 из 26] (2012) WEB-DLRip | Kapets's Studios & SkyeFilm

0 | 2

2.66 ГБ

В этой теме нет новых непрочитанных сообщений. Мстители: Могучие герои Земли / The Avengers: Earth's Mightiest Heroes [S02] (2012) WEB-DLRip

109 | 15

4.82 ГБ

В этой теме нет новых непрочитанных сообщений. Мстители - Могучие Герои Земли / The Avengers - Earth's Mightiest Heroes [02x07-08 из 26] (2012) WEB-DL 720p

0 | 2

1.28 ГБ




Вы не можете начинать темы
Вы не можете отвечать на сообщения
Вы не можете редактировать свои сообщения
Вы не можете удалять свои сообщения
Вы не можете добавлять вложения

Перейти:  
Для Мосгорсуда, Роскомнадзора и рекламодателей: mosgorsud-torrent[собачка]yandex.ru
 Вход
ppkBB3cker v.2 © 2008-2014 @ PPK
[ Time : 0.055s | 16 Queries | GZIP : Off ]

Торрент трекер RUTOR.IN, Не можете зайти на rutor.org? Какой новый адрес рутор? Какое зеркало рутор? Не работает rutor.org и зеркала? Тогда наш торрент специально для вас. Rutor.in неофициальное зеркало rutor. В случае если у Вас заблокирован rutor или вдруг Вы не можете на него зайти, то Вы без труда сможете скачать бесплатно и без рекламы последние новинки кино, игр, сериалов и прочего у нас, на Rutor.in. Не нужно использовать прокси, чтобы зайти на рутор, достаточно воспользоваться нашим ресурсом. Все новые фильмы, игры, сериалы, книги и музыка за 2013 и 2014 годы через торрент бесплатно. Скачивайте фильмы в хорошем качестве, игры для пк, xbox, playstation без регистрации. У нас вы найдете новые Зарубежные сериалы и Русские сериалы 2013, 2014, 2015 годов. Оставайтесь с нами, качайте любимые фильмы, игры, сериалы, книги и музыку.