img image001 image001 image001 image001 image001 image001 image001 image001 image001 image001 image001 image001 image001 image001 image001

Planets Sun Sun Sun
Статистика раздачи
Автор: Снежана | Размер: 745.76 МБ | Добавлен: 27 июл 2013
Раздают: 15    Качают: 4
Скачать торрент
Скачать торрент
Описание торрента

СообщениеДобавлено: 27 июл 2013 

#77
Год выпуска: 2010
Страна: Россия
Киностудия: Centre of National Film (CNF)

Жанр: мультфильм, комедия, приключения
Продолжительность: 01:28:09

Перевод: не требуется
Субтитры: нет
Оригинальная аудиодорожка: Русский

Режиссер: Святослав Ушаков, Инна Евланникова

Роли озвучивали: Анна Большова, Елена Яковлева, Евгений Миронов, Сергей Гармаш, Александр Баширов, Руслан Кулешов, Сергей Юшкевич, Николай Сморчков, Всеволод Кузнецов, Жанна Никонова, Радик Мухаметзянов, Владимир Довжик, Нина Шмелькова...

Описание: Привычный ход вещей нарушен! Цирковая собака Белка больше не выйдет на манеж покорять сердца зрителей, а дворняжка Стрелка не будет ночевать в подворотнях и искать себе пропитание. Теперь они не просто собаки, а члены отряда космонавтов. И лишь самые достойные, самые выносливые отправятся покорять космическое пространство...





Исходник: BDRip 1080p
Тип релиза: HDRip
Контейнер: AVI

Видео: 720x400 (16:9), 23,976 fps, XviD MPEG-4 ~ 1045 kbps avg, 0.151 bit/pixel
Аудио: 48 kHz, MPEG Layer 3, 2 ch, 128.00 kbps
Общее
Полное имя : Zvjozdnye.sobaki.Belka.i.Strelka.2010.HDRip.avi
Формат : AVI
Формат/Информация : Audio Video Interleave
Размер файла : 746 Мбайт
Продолжительность : 1 ч. 28 м.
Общий поток : 1183 Кбит/сек
Программа кодирования : VirtualDubModRus 1.5.10.2 (build 2542/release)
Библиотека кодирования : VirtualDubMod build 2542/release

Видео
Идентификатор : 0
Формат : MPEG-4 Visual
Профиль формата : Advanced Simple@L5
Параметр BVOP формата : 1
Параметр QPel формата : Нет
Параметр GMC формата : Без точки перехода
Параметр матрицы формата : Выборочная
Идентификатор кодека : XVID
Идентификатор кодека/Подсказка : XviD
Продолжительность : 1 ч. 28 м.
Битрейт : 1045 Кбит/сек
Ширина : 720 пикселей
Высота : 400 пикселей
Соотношение сторон : 16:9
Частота кадров : 23,976 кадра/сек
Цветовое пространство : YUV
Субдискретизация насыщенности : 4:2:0
Битовая глубина : 8 бит
Тип развёртки : Прогрессивная
Метод сжатия : С потерями
Бит/(Пиксели*Кадры) : 0.151
Размер потока : 659 Мбайт (88%)
Библиотека кодирования : XviD 1.2.1 (UTC 2008-12-04)

Аудио
Идентификатор : 1
Формат : MPEG Audio
Версия формата : Version 1
Профиль формата : Layer 3
Режим : Joint stereo
Расширение режима : MS Stereo
Идентификатор кодека : 55
Идентификатор кодека/Подсказка : MP3
Продолжительность : 1 ч. 28 м.
Вид битрейта : Постоянный
Битрейт : 128 Кбит/сек
Каналы : 2 канала
Частота : 48,0 КГц
Метод сжатия : С потерями
Размер потока : 80,7 Мбайт (11%)
Выравнивание : Соединение по промежуткам
Продолжительность промежутка : 42 мс. (1,00 видеокадр)
Время предзагрузки промежутка : 504 мс.




Раздача от:



   Похожие торренты   Торрент   Размер 
В этой теме нет новых непрочитанных сообщений. Звёздные собаки: Белка и Стрелка (2010) HDRip-AVC от Youtracker

11 | 2

1.46 ГБ

В этой теме нет новых непрочитанных сообщений. Звёздные собаки: Белка и Стрелка (2010) HDRip | 3D-видео

30 | 2

1.37 ГБ

В этой теме нет новых непрочитанных сообщений. Белка и Стрелка. Звездные собаки (2010) PC

214 | 14

291.34 МБ

В этой теме нет новых непрочитанных сообщений. Звёздные собаки: Белка и Стрелка (2010) Blu-ray 1080p от zmei666

0 | 3

21.2 ГБ

В этой теме нет новых непрочитанных сообщений. Звёздные собаки: Белка и Стрелка [2D] (2010) BDRip от HQCLUB

187 | 9

1.46 ГБ

В этой теме нет новых непрочитанных сообщений. Звёздные собаки: Белка и Стрелка (2010) BDRip 720 от SuperMin

375 | 13

2.74 ГБ

В этой теме нет новых непрочитанных сообщений. Звёздные собаки: Белка и Стрелка (2010) DVD5 от zmei666

2 | 2

4.05 ГБ




Вы не можете начинать темы
Вы не можете отвечать на сообщения
Вы не можете редактировать свои сообщения
Вы не можете удалять свои сообщения
Вы не можете добавлять вложения

Перейти:  
Для Мосгорсуда, Роскомнадзора и рекламодателей: mosgorsud-torrent[собачка]yandex.ru
 Вход
ppkBB3cker v.2 © 2008-2014 @ PPK
[ Time : 0.041s | 14 Queries | GZIP : On ]

Торрент трекер RUTOR.IN, Не можете зайти на rutor.org? Какой новый адрес рутор? Какое зеркало рутор? Не работает rutor.org и зеркала? Тогда наш торрент специально для вас. Rutor.in неофициальное зеркало rutor. В случае если у Вас заблокирован rutor или вдруг Вы не можете на него зайти, то Вы без труда сможете скачать бесплатно и без рекламы последние новинки кино, игр, сериалов и прочего у нас, на Rutor.in. Не нужно использовать прокси, чтобы зайти на рутор, достаточно воспользоваться нашим ресурсом. Все новые фильмы, игры, сериалы, книги и музыка за 2013 и 2014 годы через торрент бесплатно. Скачивайте фильмы в хорошем качестве, игры для пк, xbox, playstation без регистрации. У нас вы найдете новые Зарубежные сериалы и Русские сериалы 2013, 2014, 2015 годов. Оставайтесь с нами, качайте любимые фильмы, игры, сериалы, книги и музыку.