img image001 image001 image001 image001 image001 image001 image001 image001 image001 image001 image001 image001 image001 image001 image001

Planets Sun Sun Sun
Статистика раздачи
Автор: Снежана | Размер: 1.37 ГБ | Добавлен: 27 июл 2013
Раздают: 1    Качают: 2
Скачать торрент
Скачать торрент
Описание торрента

СообщениеДобавлено: 27 июл 2013 

Наживка для акулы / Shark Bait
(2006)
DVDRip-AVC [Hi10P] от FREEISLAND




Жанр: мультфильм, семейный

Режиссер: Ховард Э. Бэйкер, Джон Фокс

Роли озвучивали:
Фредди Принц мл., Роб Шнайдер, Ивэн Рэйчел Вуд, Донал Лог, Энди Дик, Фрэн Дрешер, Джон Рис-Дэвис, Р. Ли Эрми, Бруно Александр, Брайс Бэкхам

Описание:
Веселые приключения забавной маленькой рыбки по имени Пи, отправившейся в поисках счастья на Большой Риф после гибели родителей. Влюбившись в самую очаровательную и знаменитую красотку Рифа, он наживает себе серьезных врагов, значительно превосходящих его по силе. Но с ним верные друзья и мудрые помощники, всегда готовые прийти на помощь. Сможет ли он отстоять свою любовь и обрести на Рифе новый дом?



Страна: США, Корея Южная
Выпущено: Silver Nitrate, FX Digital, Digiart Productions
Продолжительность: 1 ч. 10 м. 58 с.. (титры обрезаны в целях экономии битрейта)
Перевод: русский, профессиональный (полное дублирование)
Оригинальная разбивка на главы: сохранена

Внимание!

Рип в High 10 Profile, в настоящее время не поддерживается большинством аппаратных проигрывателей.
Для корректного воспроизведения может потребоваться обновление ПО.
Владельцам несовместимого железа просьба не беспокоить, на трекере есть альтернативные релизы.

Качество: DVDRip-AVC Hi10P (SSIM: 0.9865525)
Исходник: DVD9
Контейнер: MKV
Видео кодек: x264 High10@L4.0
Аудио кодек: DTS
Видео: AVC at 2005 Кбит/сек, 720 x 554 @ 1024 x 554 (1.848) at 25.000 fps
Аудио: DTS at 768 Кбит/сек, 6 каналов, 48,0 КГц
Субтитры: русские, полные (SRT/UTF-8)


Общее
Уникальный идентификатор : 250163476591706124528492656865980881600 (0xBC33BBA98ED278D5930923AEE2B29AC0)
Полное имя : Наживка для акулы [Shark Bait] (2006) DVDRip-Hi10P by_F.HD.mkv
Формат : Matroska
Версия формата : Version 2
Размер файла : 1,37 Гбайт
Продолжительность : 1 ч. 10 м.
Общий поток : 2762 Кбит/сек
Название фильма : релиз от FREEISLAND.ORG
Дата кодирования : UTC 2012-09-07 11:47:01
Программа кодирования : mkvmerge v5.8.0 ('No Sleep / Pillow') built on Sep 2 2012 15:37:04
Библиотека кодирования : libebml v1.2.3 + libmatroska v1.3.0

Видео
Идентификатор : 1
Формат : AVC
Формат/Информация : Advanced Video Codec
Профиль формата : High 10@L4.0
Параметр CABAC формата : Да
Параметр ReFrames формата : 16 кадров
Идентификатор кодека : V_MPEG4/ISO/AVC
Продолжительность : 1 ч. 10 м.
Битрейт : 2005 Кбит/сек
Ширина : 720 пикселей
Высота : 554 пикселя
Соотношение сторон : 16:9
Частота кадров : 25,000 кадров/сек
Цветовое пространство : YUV
Субдискретизация насыщенности : 4:2:0
Битовая глубина : 10 бит
Тип развёртки : Прогрессивная
Бит/(Пиксели*Кадры) : 0.201
Размер потока : 991 Мбайт (71%)
Библиотека кодирования : x264 core 125 r2208+677+32 26f090e tMod [10-bit@all X86_64]
Настройки программы : cabac=1 / ref=16 / deblock=1:1:1 / analyse=0x3:0x133 / me=umh / subme=11 / psy=1 / fade_compensate=0.00 / psy_rd=0.80:0.00 / mixed_ref=1 / me_range=64 / chroma_me=1 / trellis=2 / 8x8dct=1 / cqm=0 / deadzone=21,11 / fast_pskip=0 / chroma_qp_offset=-2 / threads=12 / lookahead_threads=2 / sliced_threads=0 / nr=0 / decimate=1 / interlaced=0 / bluray_compat=0 / constrained_intra=0 / fgo=0 / bframes=8 / b_pyramid=2 / b_adapt=2 / b_bias=0 / direct=3 / weightb=1 / open_gop=0 / weightp=2 / keyint=250 / keyint_min=25 / scenecut=40 / intra_refresh=0 / rc_lookahead=0 / rc=2pass / mbtree=0 / bitrate=2005 / ratetol=1.0 / qcomp=1.00 / qpmin=0 / qpmax=48 / qpstep=4 / cplxblur=20.0 / qblur=0.5 / vbv_maxrate=50000 / vbv_bufsize=62500 / nal_hrd=none / ip_ratio=1.40 / pb_ratio=1.30 / aq=4:1.10
Default : Да
Forced : Нет
Основные цвета : BT.470-6 System B, BT.470-6 System G, BT.601-6 625, BT.1358 625, BT.1700 625 PAL, BT.1700 625 SECAM
Характеристики трансфера : BT.470-6 System B, BT.470-6 System G
Коэффициенты матрицы : BT.470-6 System B, BT.470-6 System G, BT.601-6 625, BT.1358 625, BT.1700 625 PAL, BT.1700 625 SECAM, IEC 61966-2-4 601

Аудио
Идентификатор : 2
Формат : DTS
Формат/Информация : Digital Theater Systems
Идентификатор кодека : A_DTS
Продолжительность : 1 ч. 10 м.
Вид битрейта : Постоянный
Битрейт : 755 Кбит/сек
Каналы : 6 каналов
Расположение каналов : Front: L C R, Side: L R, LFE
Частота : 48,0 КГц
Битовая глубина : 24 бит
Метод сжатия : С потерями
Размер потока : 383 Мбайт (27%)
Заголовок : DUB
Язык : Russian
Default : Да
Forced : Нет

Текст
Идентификатор : 3
Формат : UTF-8
Идентификатор кодека : S_TEXT/UTF8
Идентификатор кодека/Информация : UTF-8 Plain Text
Заголовок : FULL
Язык : Russian
Default : Нет
Forced : Нет

Меню
00:00:00.000 : en:01. Promise me Pi
00:08:29.040 : en:02. A warm welcome
00:15:26.600 : en:03. Aunt Pearl
00:23:38.520 : en:04. Squidnappers
00:27:42.440 : en:05. A date with Cordelia
00:37:34.560 : en:06. Pearl problems
00:43:38.160 : en:07. Nerrisa's pearl
00:52:17.440 : en:08. Training begins
00:56:14.680 : en:09. Believe in me
01:00:44.200 : en:10. Last day of training
01:08:04.040 : en:11. Standing up to Troy
01:10:15.440 : en:12. End credits















СЭМПЛ

Релиз от:

Если у вас возникают вопросы типа:
-почему у меня есть звук и отсутствует изображение?
-почему у меня рассыпается картинка?
-почему у меня картинка фонит синевой или зеленью?
-зачем и кому всё это нужно?
и тому подобные, читаем FAQ.
ссылка на FAQ запрещена правилами.

По этому, гуглим на тему спойлера (Что такое 10-ти битное видео (High 10 Profile - Hi10P), и как его смотреть?).



   Похожие торренты   Торрент   Размер 
В этой теме нет новых непрочитанных сообщений. Наживка для акулы: Не очень страшное кино / Shark Bait (2006) DVD9

2 | 3

5 ГБ

В этой теме нет новых непрочитанных сообщений. Наживка для акулы / Shark Bait (2006) BDRip 720p от Torrent-Xzona

2 | 3

2.19 ГБ

В этой теме нет новых непрочитанных сообщений. Наживка для акулы / Shark Bait (2006) BDRip 1080p от Torrent-Xzona

4 | 7

4.37 ГБ

В этой теме нет новых непрочитанных сообщений. Наживка для акулы: Не очень страшное кино / Shark Bait (2006) HDRip от Torrent-Xzona | КПК | D

22 | 9

322.68 МБ

В этой теме нет новых непрочитанных сообщений. Наживка для акулы: Не очень страшное кино / Shark Bait / The Reef (2006) BDRip от HQCLUB

65 | 5

1.45 ГБ

В этой теме нет новых непрочитанных сообщений. Мега-акула против Меха-акулы / Mega Shark vs. Mecha Shark (2014) HDRip | L1

716 | 72

1.37 ГБ

В этой теме нет новых непрочитанных сообщений. Мега-акула против Меха-акулы / Mega Shark vs. Mecha Shark (2014) HDRip-AVC от ExKinoRay | L1

73 | 4

1.96 ГБ




Вы не можете начинать темы
Вы не можете отвечать на сообщения
Вы не можете редактировать свои сообщения
Вы не можете удалять свои сообщения
Вы не можете добавлять вложения

Перейти:  
Для Мосгорсуда, Роскомнадзора и рекламодателей: mosgorsud-torrent[собачка]yandex.ru
 Вход
ppkBB3cker v.2 © 2008-2014 @ PPK
[ Time : 0.047s | 18 Queries | GZIP : Off ]

cron