img image001 image001 image001 image001 image001 image001 image001 image001 image001 image001 image001 image001 image001 image001 image001

Planets Sun Sun Sun
Статистика раздачи
Автор: Снежана | Размер: 269.47 МБ | Добавлен: 27 июл 2013
Раздают: 2    Качают: 3
Скачать торрент
Скачать торрент
Описание торрента

СообщениеДобавлено: 27 июл 2013 

#77
Год выпуска: 1975
Страна: CCCР
Студия: Союзмультфильм

Жанр: мультфильм, короткометражка
Продолжительность: 00:15:22

Режиссер: Владимир Попов, Владимир Пекарь

Озвучивали: Андрей Миронов, Лев Дуров, Василий Ливанов, Вячеслав Невинный...

Описание: Фильм рассказывает о благородной профессии ветеринарного врача, о дружбе мальчика с собакой. Верный пёс отдал жизнь за маленького друга…





Качество: DVDRip-AVC
Формат: MKV

Видео: 720x576 (4:3), 25 fps, H264 ~ 2000 kbps avg, 0.193 bit/pixel
Аудио: 48 kHz, AC3, 6 ch, 448.00 kbps
Общее
Уникальный идентификатор
Полное имя : Vernite.Reksa.1975.DVDRip-AVC.mkv
Формат : Matroska
Версия формата : Version 2
Размер файла : 269 Мбайт
Продолжительность : 15 м.
Общий поток : 2451 Кбит/сек
Дата кодирования : UTC 2012-06-12 10:59:31
Программа кодирования : mkvmerge v5.0.1 ('Es ist Sommer') built on Nov 6 2011 16:23:40
Библиотека кодирования : libebml v1.2.2 + libmatroska v1.3.0

Видео
Идентификатор : 1
Формат : AVC
Формат/Информация : Advanced Video Codec
Профиль формата : High@L4.1
Параметр CABAC формата : Да
Параметр ReFrames формата : 11 кадров
Идентификатор кодека : V_MPEG4/ISO/AVC
Продолжительность : 15 м.
Битрейт : 2000 Кбит/сек
Ширина : 720 пикселей
Высота : 576 пикселей
Соотношение сторон : 4:3
Частота кадров : 25,000 кадров/сек
Стандарт вещания : PAL
Цветовое пространство : YUV
Субдискретизация насыщенности : 4:2:0
Битовая глубина : 8 бит
Тип развёртки : Прогрессивная
Бит/(Пиксели*Кадры) : 0.193
Размер потока : 215 Мбайт (80%)
Библиотека кодирования : x264 core 119 r2106 07efeb4
Настройки программы : cabac=1 / ref=11 / deblock=1:-2:-1 / analyse=0x3:0x113 / me=umh / subme=9 / psy=1 / psy_rd=1.00:0.20 / mixed_ref=1 / me_range=32 / chroma_me=1 / trellis=1 / 8x8dct=1 / cqm=0 / deadzone=21,11 / fast_pskip=0 / chroma_qp_offset=-3 / threads=3 / sliced_threads=0 / nr=0 / decimate=0 / interlaced=0 / bluray_compat=0 / constrained_intra=0 / bframes=8 / b_pyramid=2 / b_adapt=2 / b_bias=0 / direct=3 / weightb=1 / open_gop=0 / weightp=2 / keyint=250 / keyint_min=25 / scenecut=40 / intra_refresh=0 / rc_lookahead=60 / rc=2pass / mbtree=1 / bitrate=2000 / ratetol=1.0 / qcomp=0.60 / qpmin=0 / qpmax=69 / qpstep=4 / cplxblur=20.0 / qblur=0.5 / ip_ratio=1.40 / aq=1:1.00
Default : Да
Forced : Нет

Аудио
Идентификатор : 2
Формат : AC-3
Формат/Информация : Audio Coding 3
Расширение режима : CM (complete main)
Идентификатор кодека : A_AC3
Продолжительность : 15 м.
Вид битрейта : Постоянный
Битрейт : 448 Кбит/сек
Каналы : 6 каналов
Расположение каналов : Front: L C R, Side: L R, LFE
Частота : 48,0 КГц
Битовая глубина : 16 бит
Метод сжатия : С потерями
Размер потока : 49,3 Мбайт (18%)
Default : Да
Forced : Нет



Раздача от:



   Похожие торренты   Торрент   Размер 
В этой теме нет новых непрочитанных сообщений. Верните Рекса (1975) DVDRip

34 | 5

283.14 МБ

В этой теме нет новых непрочитанных сообщений. Приключения Рекса / Reksio / Rexik [01-65 из 65] (1977-1988) DVDRip

21 | 9

4.61 ГБ

В этой теме нет новых непрочитанных сообщений. Приключения Рекса / Reksio / Rexik [01-65 из 65] (1977-1988) DVDRip | КПК от Kino@rena

5 | 5

1.93 ГБ

В этой теме нет новых непрочитанных сообщений. Афоня (1975) DVDRip от Youtracker

50 | 7

1.46 ГБ

В этой теме нет новых непрочитанных сообщений. Афоня (1975) DVDRip-AVC от Youtracker

40 | 6

1.46 ГБ

В этой теме нет новых непрочитанных сообщений. Афоня (1975) DVDRip от Youtracker

21 | 4

744.88 МБ

В этой теме нет новых непрочитанных сообщений. Новогодние приключения Маши и Вити (1975) DVDRip-AVC от Youtracker

83 | 5

744.11 МБ




Вы не можете начинать темы
Вы не можете отвечать на сообщения
Вы не можете редактировать свои сообщения
Вы не можете удалять свои сообщения
Вы не можете добавлять вложения

Перейти:  
Для Мосгорсуда, Роскомнадзора и рекламодателей: mosgorsud-torrent[собачка]yandex.ru
 Вход
ppkBB3cker v.2 © 2008-2014 @ PPK
[ Time : 0.051s | 14 Queries | GZIP : Off ]

Торрент трекер RUTOR.IN, Не можете зайти на rutor.org? Какой новый адрес рутор? Какое зеркало рутор? Не работает rutor.org и зеркала? Тогда наш торрент специально для вас. Rutor.in неофициальное зеркало rutor. В случае если у Вас заблокирован rutor или вдруг Вы не можете на него зайти, то Вы без труда сможете скачать бесплатно и без рекламы последние новинки кино, игр, сериалов и прочего у нас, на Rutor.in. Не нужно использовать прокси, чтобы зайти на рутор, достаточно воспользоваться нашим ресурсом. Все новые фильмы, игры, сериалы, книги и музыка за 2013 и 2014 годы через торрент бесплатно. Скачивайте фильмы в хорошем качестве, игры для пк, xbox, playstation без регистрации. У нас вы найдете новые Зарубежные сериалы и Русские сериалы 2013, 2014, 2015 годов. Оставайтесь с нами, качайте любимые фильмы, игры, сериалы, книги и музыку.