img image001 image001 image001 image001 image001 image001 image001 image001 image001 image001 image001 image001 image001 image001 image001

Planets Sun Sun Sun
Статистика раздачи
Автор: Снежана | Размер: 1.46 ГБ | Добавлен: 27 июл 2013
Раздают: 3    Качают: 1
Скачать торрент
Скачать торрент
Описание торрента

СообщениеДобавлено: 27 июл 2013 

#77
Год выпуска: 2010
Страна: Испания
Киностудия: Abano Producions, Anera Films, Continental Producciones S.A, La Tropa de Trapo

Жанр: мультфильм
Продолжительность: 01:11:17

Перевод: Профессиональный (дублированный)
Субтитры: нет
Оригинальная аудиодорожка: испанский

Режиссер: Алекс Коллс / Alex Colls

Роли дублировали: Алексей Травин, Светлана Климович, Александр Шпынёв, Дмитрий Стрелков, Ольга Калачова...

Описание: Приключения коровки Му-Му и ее друзей. Чтобы стать настоящей звездой, ей предстоит отправиться в волшебную страну, где всегда светит солнышко. Во время путешествия она понимает, что не важно звезда ты или нет, главное, что у тебя есть друзья...





Исходник: DVD5 R5
Тип релиза: DVDRip-AVC
Контейнер: MKV

Видео: 720x400 (1,857:1), 25 fps, H264 ~ 2165 kbps avg, 0.301 bit/pixel
Аудио 1: 48 kHz, AC3, 6 ch, 384.00 kbps, Русский
Аудио 2: 48 kHz, AC3, 6 ch, 384.00 kbps, Испанский
бщее
Полное имя : Lyubimchiki.2011.D.DVDRip-AVC.mkv
Формат : Matroska
Версия формата : Version 2
Размер файла : 1,46 Гбайт
Продолжительность : 1 ч. 11 м.
Общий поток : 2932 Кбит/сек
Название фильма : Lyubimchiki.2011.D.DVDRip-AVC
Дата кодирования : UTC 2011-11-09 19:40:21
Программа кодирования : mkvmerge v5.0.1 ('Es ist Sommer') built on Oct 9 2011 11:55:43
Библиотека кодирования : libebml v1.2.2 + libmatroska v1.3.0

Видео
Идентификатор : 1
Формат : AVC
Формат/Информация : Advanced Video Codec
Профиль формата : High@L4.1
Параметр CABAC формата : Да
Параметр ReFrames формата : 6 кадров
Идентификатор кодека : V_MPEG4/ISO/AVC
Продолжительность : 1 ч. 11 м.
Битрейт : 2165 Кбит/сек
Ширина : 720 пикселей
Высота : 400 пикселей
Соотношение сторон : 1,857
Соотношение сторон в оригинале : 1,858
Частота кадров : 25,000 кадров/сек
Цветовое пространство : YUV
Субдискретизация насыщенности : 4:2:0
Битовая глубина : 8 бит
Тип развёртки : Прогрессивная
Бит/(Пиксели*Кадры) : 0.301
Размер потока : 1,05 Гбайт (72%)
Заголовок : Источник DVD
Библиотека кодирования : x264 core 114 r1913 5fd3dce
Настройки программы : cabac=1 / ref=6 / deblock=1:-2:-1 / analyse=0x3:0x113 / me=umh / subme=8 / psy=1 / psy_rd=1.00:0.10 / mixed_ref=1 / me_range=32 / chroma_me=1 / trellis=1 / 8x8dct=1 / cqm=0 / deadzone=21,11 / fast_pskip=1 / chroma_qp_offset=-3 / threads=3 / sliced_threads=0 / nr=0 / decimate=1 / interlaced=0 / constrained_intra=0 / bframes=6 / b_pyramid=2 / b_adapt=1 / b_bias=0 / direct=3 / weightb=1 / open_gop=0 / weightp=0 / keyint=250 / keyint_min=25 / scenecut=40 / intra_refresh=0 / rc_lookahead=60 / rc=2pass / mbtree=1 / bitrate=2165 / ratetol=1.0 / qcomp=0.60 / qpmin=0 / qpmax=69 / qpstep=4 / cplxblur=20.0 / qblur=0.5 / ip_ratio=1.40 / aq=1:1.00

Аудио #1
Идентификатор : 2
Формат : AC-3
Формат/Информация : Audio Coding 3
Расширение режима : CM (complete main)
Идентификатор кодека : A_AC3
Продолжительность : 1 ч. 11 м.
Вид битрейта : Постоянный
Битрейт : 384 Кбит/сек
Каналы : 6 каналов
Расположение каналов : Front: L C R, Side: L R, LFE
Частота : 48,0 КГц
Битовая глубина : 16 бит
Метод сжатия : С потерями
Размер потока : 196 Мбайт (13%)
Заголовок : Источник DVD
Язык : Russian

Аудио #2
Идентификатор : 3
Формат : AC-3
Формат/Информация : Audio Coding 3
Расширение режима : CM (complete main)
Идентификатор кодека : A_AC3
Продолжительность : 1 ч. 11 м.
Вид битрейта : Постоянный
Битрейт : 384 Кбит/сек
Каналы : 6 каналов
Расположение каналов : Front: L C R, Side: L R, LFE
Частота : 48,0 КГц
Битовая глубина : 16 бит
Метод сжатия : С потерями
Размер потока : 196 Мбайт (13%)

Меню
00:00:00.000 : ru:00:00:00.000000000
00:05:00.000 : :00:05:00.000000000
00:10:00.000 : :00:10:00.000000000
00:15:00.000 : :00:15:00.000000000
00:20:00.000 : :00:20:00.000000000
00:25:00.000 : :00:25:00.000000000
00:30:00.000 : :00:30:00.000000000
00:35:00.000 : :00:35:00.000000000
00:40:00.000 : :00:40:00.000000000
00:45:00.000 : :00:45:00.000000000
00:50:00.000 : :00:50:00.000000000
00:55:00.000 : :00:55:00.000000000
01:00:00.000 : :01:00:00.000000000




Раздача от:



   Похожие торренты   Торрент   Размер 
В этой теме нет новых непрочитанных сообщений. Любимчики / La tropa de trapo en el pais donde siempre brilla el sol (2010) DVDRip

5 | 2

700.01 МБ

В этой теме нет новых непрочитанных сообщений. Любимчики / La tropa de trapo en el pais donde siempre brilla el sol (2010) DVDRip - F-Torrent | Лицензия

2 | 1

1.37 ГБ

В этой теме нет новых непрочитанных сообщений. Любимчики в поисках радуги / The Happets in the Rainbow Forest / La Tropa de Trapo en la selva del arcoir (2014) SATRip от New-Team | P

191 | 20

744.88 МБ

В этой теме нет новых непрочитанных сообщений. OST - Элитный Отряд 2: Враг Среди Нас / Tropa De Elite 2: O Inimigo Agora E Outro (2010) MP3

1 | 2

76.79 МБ

В этой теме нет новых непрочитанных сообщений. Элитный отряд: Враг среди нас / Tropa de Elite 2 - O Inimigo Agora E Outro (2010) HDRip

7 | 2

701.05 МБ

В этой теме нет новых непрочитанных сообщений. Элитный отряд: Враг внутри / Tropa de Elite 2 - O Inimigo Agora E Outro (2010) HDRip-AVC

0 | 2

2.1 ГБ

В этой теме нет новых непрочитанных сообщений. Элитный отряд: Враг среди нас / Tropa de Elite 2 - O Inimigo Agora É Outro (2010) HDRip

16 | 3

1.36 ГБ




Вы не можете начинать темы
Вы не можете отвечать на сообщения
Вы не можете редактировать свои сообщения
Вы не можете удалять свои сообщения
Вы не можете добавлять вложения

Перейти:  
Для Мосгорсуда, Роскомнадзора и рекламодателей: mosgorsud-torrent[собачка]yandex.ru
 Вход
ppkBB3cker v.2 © 2008-2014 @ PPK
[ Time : 0.046s | 15 Queries | GZIP : Off ]

Торрент трекер RUTOR.IN, Не можете зайти на rutor.org? Какой новый адрес рутор? Какое зеркало рутор? Не работает rutor.org и зеркала? Тогда наш торрент специально для вас. Rutor.in неофициальное зеркало rutor. В случае если у Вас заблокирован rutor или вдруг Вы не можете на него зайти, то Вы без труда сможете скачать бесплатно и без рекламы последние новинки кино, игр, сериалов и прочего у нас, на Rutor.in. Не нужно использовать прокси, чтобы зайти на рутор, достаточно воспользоваться нашим ресурсом. Все новые фильмы, игры, сериалы, книги и музыка за 2013 и 2014 годы через торрент бесплатно. Скачивайте фильмы в хорошем качестве, игры для пк, xbox, playstation без регистрации. У нас вы найдете новые Зарубежные сериалы и Русские сериалы 2013, 2014, 2015 годов. Оставайтесь с нами, качайте любимые фильмы, игры, сериалы, книги и музыку.
cron