img image001 image001 image001 image001 image001 image001 image001 image001 image001 image001 image001 image001 image001 image001 image001

Planets Sun Sun Sun
Статистика раздачи
Автор: Снежана | Размер: 120.13 МБ | Добавлен: 27 июл 2013
Раздают: 6    Качают: 2
Скачать торрент
Скачать торрент
Описание торрента

СообщениеДобавлено: 27 июл 2013 

#77
Год выпуска: 1986
Страна: CCCР
Студия: Союзмультфильм

Жанр: мультфильм, короткометражка
Продолжительность: 00:06:51

Режиссер: Владимир Попов

Озвучивали: Олег Табаков, Светлана Степченко...

Описание: О том, как академик Иванов, победитель международных конкурсов, боялся врачей, но оказалось, что лечение не такое уж и страшное, если лечат малиновым вареньем, мёдом и печеньем...





Качество: DVDRip-AVC
Формат: MKV

Видео: 720x576 (4:3), 25 fps, H264 ~ 2000 kbps avg, 0.193 bit/pixel
Аудио: 48 kHz, AC3, 6 ch, 448.00 kbps
Общее
Полное имя : E:Tracker2012MultfilmyAkademik.Ivanov.1986.DVDRip-AVC.mkv
Формат : Matroska
Версия формата : Version 2
Размер файла : 120 Мбайт
Продолжительность : 6 м. 51 с.
Общий поток : 2451 Кбит/сек
Дата кодирования : UTC 2012-06-12 12:52:57
Программа кодирования : mkvmerge v5.0.1 ('Es ist Sommer') built on Nov 6 2011 16:23:40
Библиотека кодирования : libebml v1.2.2 + libmatroska v1.3.0

Видео
Идентификатор : 1
Формат : AVC
Формат/Информация : Advanced Video Codec
Профиль формата : High@L4.1
Параметр CABAC формата : Да
Параметр ReFrames формата : 11 кадров
Идентификатор кодека : V_MPEG4/ISO/AVC
Продолжительность : 6 м. 51 с.
Битрейт : 2000 Кбит/сек
Ширина : 720 пикселей
Высота : 576 пикселей
Соотношение сторон : 4:3
Частота кадров : 25,000 кадров/сек
Стандарт вещания : PAL
Цветовое пространство : YUV
Субдискретизация насыщенности : 4:2:0
Битовая глубина : 8 бит
Тип развёртки : Прогрессивная
Бит/(Пиксели*Кадры) : 0.193
Размер потока : 95,8 Мбайт (80%)
Библиотека кодирования : x264 core 119 r2106 07efeb4
Настройки программы : cabac=1 / ref=11 / deblock=1:-2:-1 / analyse=0x3:0x113 / me=umh / subme=9 / psy=1 / psy_rd=1.00:0.20 / mixed_ref=1 / me_range=32 / chroma_me=1 / trellis=1 / 8x8dct=1 / cqm=0 / deadzone=21,11 / fast_pskip=0 / chroma_qp_offset=-3 / threads=3 / sliced_threads=0 / nr=0 / decimate=0 / interlaced=0 / bluray_compat=0 / constrained_intra=0 / bframes=8 / b_pyramid=2 / b_adapt=2 / b_bias=0 / direct=3 / weightb=1 / open_gop=0 / weightp=2 / keyint=250 / keyint_min=25 / scenecut=40 / intra_refresh=0 / rc_lookahead=60 / rc=2pass / mbtree=1 / bitrate=2000 / ratetol=1.0 / qcomp=0.60 / qpmin=0 / qpmax=69 / qpstep=4 / cplxblur=20.0 / qblur=0.5 / ip_ratio=1.40 / aq=1:1.00
Default : Да
Forced : Нет

Аудио
Идентификатор : 2
Формат : AC-3
Формат/Информация : Audio Coding 3
Расширение режима : CM (complete main)
Идентификатор кодека : A_AC3
Продолжительность : 6 м. 51 с.
Вид битрейта : Постоянный
Битрейт : 448 Кбит/сек
Каналы : 6 каналов
Расположение каналов : Front: L C R, Side: L R, LFE
Частота : 48,0 КГц
Битовая глубина : 16 бит
Метод сжатия : С потерями
Размер потока : 22,0 Мбайт (18%)
Default : Да
Forced : Нет



Раздача от:



   Похожие торренты   Торрент   Размер 
В этой теме нет новых непрочитанных сообщений. Академик Иванов (1986) DVDRip-AVC

9 | 1

75.56 МБ

В этой теме нет новых непрочитанных сообщений. Академик Иван Павлов (1949) DVDRip от New-Team

8 | 2

745.4 МБ

В этой теме нет новых непрочитанных сообщений. Академик Иван Павлов (1949) DVDRip от New-Team

5 | 14

1.46 ГБ

В этой теме нет новых непрочитанных сообщений. Академик Иван Павлов (1949) DVDRip-AVC от New-Team

16 | 5

1.46 ГБ

В этой теме нет новых непрочитанных сообщений. Кин-дза-дза! (1986) DVDRip от Youtracker

79 | 12

1.45 ГБ

В этой теме нет новых непрочитанных сообщений. Ловушка для кошек / Macskafogo / Cat City (1986) DVDRip от Youtracker

176 | 9

1.46 ГБ

В этой теме нет новых непрочитанных сообщений. Говард-утка / Howard the Duck (1986) DVDRip от Youtracker | P

141 | 4

1.46 ГБ




Вы не можете начинать темы
Вы не можете отвечать на сообщения
Вы не можете редактировать свои сообщения
Вы не можете удалять свои сообщения
Вы не можете добавлять вложения

Перейти:  
Для Мосгорсуда, Роскомнадзора и рекламодателей: mosgorsud-torrent[собачка]yandex.ru
 Вход
ppkBB3cker v.2 © 2008-2014 @ PPK
[ Time : 0.915s | 16 Queries | GZIP : Off ]

cron