img image001 image001 image001 image001 image001 image001 image001 image001 image001 image001 image001 image001 image001 image001 image001

Planets Sun Sun Sun
Статистика раздачи
Автор: Снежана | Размер: 2.91 ГБ | Добавлен: 27 июл 2013
Раздают: 13    Качают: 3
Скачать торрент
Скачать торрент
Описание торрента

СообщениеДобавлено: 27 июл 2013 

Гроза муравьев / The Ant Bully
(2006)
BDRip 1080p [Hi10P] от FREEISLAND




Жанр: мультфильм, фэнтези, комедия, приключения, семейный

Режиссер: Джон А. Дэвис

Роли озвучивали:
Джулия Робертс, Николас Кейдж, Мэрил Стрип, Пол Джаматти, Зэк Тайлер, Реджина Кинг, Брюс Кэмпбелл, Лили Томлин, Шери Отери, Ларри Миллер

Описание:
Когда вы становитесь таким же маленьким по размеру, как муравей, мир выглядит огромным, а приключения кажутся еще более впечатляющими! Именно это приходится уяснить Лукасу после того, как он нацеливает свой водяной пистолет на беззащитных муравьев. В отместку они опрыскивают его специальным снадобьем, которое уменьшает "Разрушителя" до их размера… и вот уже муравейник выглядит огромной горой, полной захватывающего действия, смеха, событий!



Официальный сайт

Страна: США
Выпущено: Warner Bros. Pictures, DNA Productions, Legendary Pictures, Playtone
Продолжительность: 1 ч. 29 м. 3 с.
Перевод: Профессиональный (полное дублирование) [R5]
Оригинальная разбивка на главы: сохранена

Внимание!

Рип в High 10 Profile, в настоящее время не поддерживается большинством аппаратных проигрывателей.
Для корректного воспроизведения может потребоваться обновление ПО.
Владельцам несовместимого железа просьба не беспокоить, на трекере есть альтернативные релизы.

Качество: BDRip 1080p Hi10P (SSIM: 0.9912772)
Исходник: BDRemux
Контейнер: MKV
Видео кодек: x264 High10@L5.1
Аудио кодек: AC-3
Видео: AVC at 4290 Кбит/сек, 1920 x 1080 (1.778) at 23.976 fps
Аудио: AC-3 at 384 Кбит/сек, 6 каналов, 48,0 КГц
Субтитры: русские, полные (SRT/UTF-8)


Общее
Уникальный идентификатор : 229671531831824792843551500306778641124 (0xACC920C811D106C5B402D8586C5B52E4)
Полное имя : Гроза муравьев [The Ant Bully] (2006) BDRip-Hi10P 1080p by_F.HD.mkv
Формат : Matroska
Версия формата : Version 2
Размер файла : 2,91 Гбайт
Продолжительность : 1 ч. 29 м.
Общий поток : 4676 Кбит/сек
Название фильма : релиз от FREEISLAND.ORG
Дата кодирования : UTC 2012-09-22 08:29:44
Программа кодирования : mkvmerge v5.8.0 ('No Sleep / Pillow') built on Sep 2 2012 15:37:04
Библиотека кодирования : libebml v1.2.3 + libmatroska v1.3.0

Видео
Идентификатор : 1
Формат : AVC
Формат/Информация : Advanced Video Codec
Профиль формата : High 10@L5.1
Параметр CABAC формата : Да
Параметр ReFrames формата : 16 кадров
Идентификатор кодека : V_MPEG4/ISO/AVC
Продолжительность : 1 ч. 29 м.
Битрейт : 4290 Кбит/сек
Ширина : 1920 пикселей
Высота : 1080 пикселей
Соотношение сторон : 16:9
Частота кадров : 23,976 кадра/сек
Цветовое пространство : YUV
Субдискретизация насыщенности : 4:2:0
Битовая глубина : 10 бит
Тип развёртки : Прогрессивная
Бит/(Пиксели*Кадры) : 0.086
Размер потока : 2,61 Гбайт (90%)
Библиотека кодирования : x264 core 128 r2216+686+32 ed27f2d tMod [10-bit@all X86_64]
Настройки программы : cabac=1 / ref=16 / deblock=1:1:1 / analyse=0x3:0x133 / me=umh / subme=11 / psy=1 / fade_compensate=0.00 / psy_rd=1.00:0.10 / mixed_ref=1 / me_range=64 / chroma_me=1 / trellis=2 / 8x8dct=1 / cqm=0 / deadzone=21,11 / fast_pskip=0 / chroma_qp_offset=-3 / threads=12 / lookahead_threads=2 / sliced_threads=0 / nr=0 / decimate=1 / interlaced=0 / bluray_compat=0 / constrained_intra=0 / fgo=0 / bframes=8 / b_pyramid=2 / b_adapt=2 / b_bias=0 / direct=3 / weightb=1 / open_gop=0 / weightp=2 / keyint=240 / keyint_min=24 / scenecut=40 / intra_refresh=0 / rc_lookahead=0 / rc=2pass / mbtree=0 / bitrate=4290 / ratetol=1.0 / qcomp=1.00 / qpmin=0 / qpmax=48 / qpstep=4 / cplxblur=20.0 / qblur=0.5 / vbv_maxrate=240000 / vbv_bufsize=240000 / nal_hrd=none / ip_ratio=1.40 / pb_ratio=1.30 / aq=4:0.85
Язык : Russian
Default : Да
Forced : Нет
Основные цвета : BT.709-5, BT.1361, IEC 61966-2-4, SMPTE RP177
Характеристики трансфера : BT.709-5, BT.1361
Коэффициенты матрицы : BT.709-5, BT.1361, IEC 61966-2-4 709, SMPTE RP177

Аудио
Идентификатор : 2
Формат : AC-3
Формат/Информация : Audio Coding 3
Расширение режима : CM (complete main)
Идентификатор кодека : A_AC3
Продолжительность : 1 ч. 29 м.
Вид битрейта : Постоянный
Битрейт : 384 Кбит/сек
Каналы : 6 каналов
Расположение каналов : Front: L C R, Side: L R, LFE
Частота : 48,0 КГц
Битовая глубина : 16 бит
Метод сжатия : С потерями
Размер потока : 245 Мбайт (8%)
Заголовок : DUB [R5]
Язык : Russian
Default : Да
Forced : Нет

Текст
Идентификатор : 3
Формат : UTF-8
Идентификатор кодека : S_TEXT/UTF8
Идентификатор кодека/Информация : UTF-8 Plain Text
Заголовок : FULL
Язык : Russian
Default : Нет
Forced : Нет

Меню
00:00:00.000 : en:01. Final Ingredient
00:02:48.835 : en:02. Destroyer
00:05:54.020 : en:03. Human and Alien Problems
00:10:58.491 : en:04. Stan Beals
00:15:01.567 : en:05. Tiny Lucas
00:19:55.528 : en:06. Queen's Ruling
00:23:27.239 : en:07. Scout and Adventures
00:27:31.316 : en:08. Finished at the Finish
00:30:28.160 : en:09. Wasp Attack
00:33:37.182 : en:10. Fire in the Hole
00:36:56.881 : en:11. Too Much Honeydew
00:39:48.052 : en:12. Indoor Hang-Gliding
00:44:42.680 : en:13. Hold the Phone
00:49:38.976 : en:14. Not the Ant I Love
00:54:11.415 : en:15. Frog Food
00:56:43.734 : en:16. Alka Root to the Rescue
00:59:52.589 : en:17. Perhaps We Are Alike
01:03:00.110 : en:18. Cloudbreather
01:05:55.618 : en:19. Unlikely Allies
01:08:27.937 : en:20. Insect Squadron
01:11:21.277 : en:21. The Sting
01:15:17.346 : en:22. Cross Our Hearts
01:17:23.639 : en:23. Dogpile and Sweet Rocks
01:20:27.823 : en:24. End Credits



















СЭМПЛ

Релиз от:

Если у вас возникают вопросы типа:
-почему у меня есть звук и отсутствует изображение?
-почему у меня рассыпается картинка?
-почему у меня картинка фонит синевой или зеленью?
-зачем и кому всё это нужно?
и тому подобные, читаем FAQ.
ссылка на FAQ запрещена правилами.

По этому, гуглим на тему спойлера (Что такое 10-ти битное видео (High 10 Profile - Hi10P), и как его смотреть?).



   Похожие торренты   Торрент   Размер 
В этой теме нет новых непрочитанных сообщений. Гроза муравьев / The Ant Bully (2006) BDRip 1080p

20 | 5

4.37 ГБ

В этой теме нет новых непрочитанных сообщений. Гроза муравьев / The Ant Bully (2006) BDRip-AVC от R.G. AVI AVC

1 | 2

1.65 ГБ

В этой теме нет новых непрочитанных сообщений. Гроза муравьев / The Ant Bully (2006) BDRip 720 от SuperMin

75 | 19

2.11 ГБ

В этой теме нет новых непрочитанных сообщений. Гроза муравьев / The Ant Bully (2006) BDRip от HQCLUB

91 | 4

1.45 ГБ

В этой теме нет новых непрочитанных сообщений. Гроза муравьев / Ant Bully, The (2006) HDRip от HQ-ViDEO

8 | 5

1.46 ГБ

В этой теме нет новых непрочитанных сообщений. Остров (2006) BDRip 1080p [Hi10P] от FREEISLAND

85 | 4

4.37 ГБ

В этой теме нет новых непрочитанных сообщений. Большое путешествие / The Wild (2006) BDRip 1080p [Hi10P] от FREEISLAND

2 | 4

2.91 ГБ




Вы не можете начинать темы
Вы не можете отвечать на сообщения
Вы не можете редактировать свои сообщения
Вы не можете удалять свои сообщения
Вы не можете добавлять вложения

Перейти:  
Для Мосгорсуда, Роскомнадзора и рекламодателей: mosgorsud-torrent[собачка]yandex.ru
 Вход
ppkBB3cker v.2 © 2008-2014 @ PPK
[ Time : 0.070s | 15 Queries | GZIP : Off ]

Торрент трекер RUTOR.IN, Не можете зайти на rutor.org? Какой новый адрес рутор? Какое зеркало рутор? Не работает rutor.org и зеркала? Тогда наш торрент специально для вас. Rutor.in неофициальное зеркало rutor. В случае если у Вас заблокирован rutor или вдруг Вы не можете на него зайти, то Вы без труда сможете скачать бесплатно и без рекламы последние новинки кино, игр, сериалов и прочего у нас, на Rutor.in. Не нужно использовать прокси, чтобы зайти на рутор, достаточно воспользоваться нашим ресурсом. Все новые фильмы, игры, сериалы, книги и музыка за 2013 и 2014 годы через торрент бесплатно. Скачивайте фильмы в хорошем качестве, игры для пк, xbox, playstation без регистрации. У нас вы найдете новые Зарубежные сериалы и Русские сериалы 2013, 2014, 2015 годов. Оставайтесь с нами, качайте любимые фильмы, игры, сериалы, книги и музыку.