img image001 image001 image001 image001 image001 image001 image001 image001 image001 image001 image001 image001 image001 image001 image001

Planets Sun Sun Sun
Статистика раздачи
Автор: Снежана | Размер: 8.64 ГБ | Добавлен: 27 июл 2013
Раздают: 18    Качают: 11
Скачать торрент
Скачать торрент
Описание торрента

СообщениеДобавлено: 27 июл 2013 

#77

Информация о фильме

Название : Марти - железный мальчик
Оригинальное название : Iron Kid
Год выхода : 2006
Жанр : Мультсериал, фантастика, боевик, приключения
Режиссер : Джэф Мартинес / Dzhef Martinez
В ролях : Силия де Диего / Celia de Diego , Антонио Муиайоз / Antonio Muiioz , Адольфо Пастор / Adolfo Pastor , Антонио Илэно / Antonio Ilano , Хуан Рюеда / Juan Rueda



Описание : История мальчика Марти, родившегося в далеком будущем. Марти живет тем, что ищет старые запчасти для роботов и продает их. Однажды Марти нашел металлический кулак, оказавшийся не просто ржавой железкой, а настоящим артефактом, изменившим жизнь мальчика.

Железный Кулак, найденный Марти на свалке отходов робототехники, становится частью мальчика, полностью подчиняясь ему и наделяя Марти неимоверными качествами Супергероя. Теперь мальчика ждут необыкновенные приключения, которые он разделит со своими верными друзьями. Дети отправятся в опасное путешествие через Большую Пустыню, чтобы оказаться в самом сердце вечной борьбы Добра и Зла. Марти многому научится и узнает древнюю легенду, связанную с Железным Кулаком и его прежним владельцем.
Страна : Республика Корея, Испания
Выпущено : BRB Internacional S.A.
Продолжительность : ~22 минуты каждая серия
Перевод : Профессиональный (дублированный)

Файл

Формат видео : AVI
Качество : DVDRip-AVC

Видео : MPEG4 Video, (H264), 704x528, 25.00fps, 1923 Кбит/сек, 0.19bit/pixel
Звук : Dolby, AC3, 48 Kbps, 2ch, ~192Kbps
Субтитры : нет




01. Легендарный кулак
02. Наследник Эона
03. Начало путешествия
04. Не только сила
05. Секрет Алли
06. Госпожа Оранж
07. Большой чемпионат по борьбе
08. Продолжение битвы
09. Бегство из оранжевой долины
10. Атака Максев
11. Цель близка
12. 28 деревянных солдатиков
13. Рождение война
14. Путь к железной башне
15. Борись, Алли
16. Падение башни
17. Ночные кошмары
18. Марти не управляем
19. 4 невидимых барона
20. Храм железной души
21. Возвращение генерала
22. Бог ледника
23. Бунт Кана
24. Вперед
25. Последняя битва ч.1
26. Последняя битва ч.2

Общее
Полное имя : D:МАРТИ - ЖЕЛЕЗНЫЙ МАЛЬЧИК\01-серия.avi
Формат : AVI
Формат/Информация : Audio Video Interleave
Размер файла : 340 Мбайт
Продолжительность : 22 м.
Общий поток : 2125 Кбит/сек
Программа кодирования : VirtualDubMod 1.5.10.2 (build 2540/release)
Библиотека кодирования : VirtualDubMod build 2540/release

Видео
Идентификатор : 0
Формат : AVC
Формат/Информация : Advanced Video Codec
Профиль формата : Main@L3.0
Параметр CABAC формата : Да
Параметр ReFrames формата : 3 кадра
Идентификатор кодека : h264
Продолжительность : 22 м.
Битрейт : 1923 Кбит/сек
Ширина : 704 пикселя
Высота : 528 пикселей
Соотношение сторон : 4:3
Частота кадров : 25,000 кадров/сек
Цветовое пространство : YUV
Субдискретизация насыщенности : 4:2:0
Битовая глубина : 8 бит
Тип развёртки : Прогрессивная
Бит/(Пиксели*Кадры) : 0.207
Размер потока : 308 Мбайт (91%)
Библиотека кодирования : x264 core 65 r999kMod cc51047
Настройки программы : cabac=1 / ref=3 / deblock=1:-2:-1 / analyse=0x1:0x131 / me=esa / subme=9 / psy_rd=1.0:0.0 / mixed_ref=1 / me_range=16 / chroma_me=1 / trellis=2 / 8x8dct=0 / cqm=0 / deadzone=21,11 / chroma_qp_offset=-2 / threads=8 / thread_queue=8 / nr=0 / decimate=1 / mbaff=0 / bframes=3 / b_pyramid=0 / b_adapt=1 / b_bias=0 / direct=3 / wpredb=1 / keyint=250 / keyint_min=25 / scenecut=40(pre) / rc=2pass / bitrate=1923 / ratetol=1.0 / qcomp=0.60 / qpmin=10 / qpmax=51 / qpstep=4 / cplxblur=20.0 / qblur=0.5 / ip_ratio=1.40 / pb_ratio=1.30 / aq=1:1.00

Аудио
Идентификатор : 1
Формат : AC-3
Формат/Информация : Audio Coding 3
Расширение режима : CM (complete main)
Параметр Endianness формата : Big
Идентификатор кодека : 2000
Продолжительность : 22 м.
Вид битрейта : Постоянный
Битрейт : 192 Кбит/сек
Каналы : 2 канала
Расположение каналов : Front: L R
Частота : 48,0 КГц
Битовая глубина : 16 бит
Метод сжатия : С потерями
Размер потока : 30,8 Мбайт (9%)
Выравнивание : Разделение по промежуткам
Продолжительность промежутка : 40 мс. (1,00 видеокадр)
Время предзагрузки промежутка : 500 мс.






   Похожие торренты   Торрент   Размер 
В этой теме нет новых непрочитанных сообщений. Марти - железный мальчик / Iron Kid [01-26 из 26] (2006) DVDRip | D

337 | 2

7.61 ГБ

В этой теме нет новых непрочитанных сообщений. Марти - железный мальчик / Iron Kid [01-26 из 26] (2006) DVDRip-AVC от Stranik 2.0 | D

6 | 2

14.38 ГБ

В этой теме нет новых непрочитанных сообщений. OST - Марти — железный мальчик / Iron Kid (2006) MP3 от Stranik 2.0

0 | 4

16.13 МБ

В этой теме нет новых непрочитанных сообщений. Марти - железный мальчик / Iron Kid [01-26 из 26] (2006) DVD9

0 | 3

14.51 ГБ

В этой теме нет новых непрочитанных сообщений. Медаль за Отвагу: Железный Кулак / Medal of Honor: Iron Fist (2006) PC

5046 | 435

967.39 МБ

В этой теме нет новых непрочитанных сообщений. Мальчик по прозвищу «Стерва» / Мальчик-бандитка / Oira sukeban (2006) DVDRip

8 | 5

703.95 МБ

В этой теме нет новых непрочитанных сообщений. Железный Чхоль / Как из стали / Kang-chul-i / Iron Cheol / Tough as Iron (2013) HDTV 720p от CINEMANIA | L2

276 | 17

1.46 ГБ




Вы не можете начинать темы
Вы не можете отвечать на сообщения
Вы не можете редактировать свои сообщения
Вы не можете удалять свои сообщения
Вы не можете добавлять вложения

Перейти:  
Для Мосгорсуда, Роскомнадзора и рекламодателей: mosgorsud-torrent[собачка]yandex.ru
 Вход
ppkBB3cker v.2 © 2008-2014 @ PPK
[ Time : 0.046s | 15 Queries | GZIP : Off ]

Торрент трекер RUTOR.IN, Не можете зайти на rutor.org? Какой новый адрес рутор? Какое зеркало рутор? Не работает rutor.org и зеркала? Тогда наш торрент специально для вас. Rutor.in неофициальное зеркало rutor. В случае если у Вас заблокирован rutor или вдруг Вы не можете на него зайти, то Вы без труда сможете скачать бесплатно и без рекламы последние новинки кино, игр, сериалов и прочего у нас, на Rutor.in. Не нужно использовать прокси, чтобы зайти на рутор, достаточно воспользоваться нашим ресурсом. Все новые фильмы, игры, сериалы, книги и музыка за 2013 и 2014 годы через торрент бесплатно. Скачивайте фильмы в хорошем качестве, игры для пк, xbox, playstation без регистрации. У нас вы найдете новые Зарубежные сериалы и Русские сериалы 2013, 2014, 2015 годов. Оставайтесь с нами, качайте любимые фильмы, игры, сериалы, книги и музыку.