img image001 image001 image001 image001 image001 image001 image001 image001 image001 image001 image001 image001 image001 image001 image001

Planets Sun Sun Sun
Статистика раздачи
Автор: Снежана | Размер: 5.76 ГБ | Добавлен: 27 июл 2013
Раздают: 18    Качают: 6
Скачать торрент
Скачать торрент
Описание торрента

СообщениеДобавлено: 27 июл 2013 

#77

Информация о фильме
Название: Обитель зла: Проклятие
Оригинальное название: Biohazard: Damnation
Год выхода: 2012
Жанр: мультфильм, ужасы, фантастика, боевик, триллер
Режиссер: Макото Камия
В ролях: Кортни Тейлор, Робин Сакс, Кэролин Лоуренс, Мэттью Мерсер, Уэнди Ли, Салли Саффиоти, Дейв Уиттенберг, Вэл Тассо, Патрик Хэрлан, Dave Wittenburg
О фильме: Продолжение популярной компьютерной анимации «Обитель зла: Вырождение». Леон Кеннеди отправляется в Восточную Европу на борьбу с монстрами — порождениями корпорации Амбрела. Больше монстров, больше пушек, больше экшена.



Выпущено: Sony Pictures Entertainment
Продолжительность: 01:40:02
Перевод: Профессиональный (многоголосый, закадровый) (лицензия)

Файл
Кодек: x264
Качество: BDRip (источник: Blu-ray Disc)
Видео: 1920x1080 (16:9), 23.976 fps, 7412 kbps
Аудио #1: AC-3, 6 ch, 384 kbps (Rus)
Аудио #2: AC-3, 6 ch, 448 kbps (Eng)
Субтитры: Русские, Английские
Скачать: сэмпл

Скриншоты

Общее
Уникальный идентификатор : 234781715101780837023274752500428280071 (0xB0A15044DF5D8045B8574B7744499107)
Полное имя : Biohazard.Damnation.2012.BDRip.1080p.Rus.Eng.mkv
Формат : Matroska
Версия формата : Version 2
Размер файла : 5,76 Гбайт
Продолжительность : 1 ч. 40 м.
Общий поток : 8245 Кбит/сек
Название фильма : Обитель зла: Проклятие / Biohazard: Damnation (2012)
Дата кодирования : UTC 2012-09-24 08:55:25
Программа кодирования : mkvmerge v5.8.0 ('No Sleep / Pillow') built on Sep 2 2012 15:37:04
Библиотека кодирования : libebml v1.2.3 + libmatroska v1.3.0

Видео
Идентификатор : 1
Формат : AVC
Формат/Информация : Advanced Video Codec
Профиль формата : High@L4.1
Параметр CABAC формата : Да
Параметр ReFrames формата : 4 кадра
Идентификатор кодека : V_MPEG4/ISO/AVC
Продолжительность : 1 ч. 40 м.
Битрейт : 7412 Кбит/сек
Ширина : 1920 пикселей
Высота : 1080 пикселей
Соотношение сторон : 16:9
Частота кадров : 23,976 кадра/сек
Цветовое пространство : YUV
Субдискретизация насыщенности : 4:2:0
Битовая глубина : 8 бит
Тип развёртки : Прогрессивная
Бит/(Пиксели*Кадры) : 0.149
Размер потока : 5,07 Гбайт (88%)
Заголовок : Release by AlexKa
Библиотека кодирования : x264 core 128 r2216 198a7ea
Настройки программы : cabac=1 / ref=4 / deblock=1:-3:-3 / analyse=0x3:0x133 / me=umh / subme=10 / psy=1 / psy_rd=1.00:0.10 / mixed_ref=1 / me_range=32 / chroma_me=1 / trellis=2 / 8x8dct=1 / cqm=0 / deadzone=21,11 / fast_pskip=0 / chroma_qp_offset=-3 / threads=12 / lookahead_threads=2 / sliced_threads=0 / nr=0 / decimate=0 / interlaced=0 / bluray_compat=0 / constrained_intra=0 / bframes=5 / b_pyramid=2 / b_adapt=2 / b_bias=0 / direct=3 / weightb=1 / open_gop=0 / weightp=2 / keyint=240 / keyint_min=23 / scenecut=40 / intra_refresh=0 / rc=2pass / mbtree=0 / bitrate=7412 / ratetol=1.0 / qcomp=0.60 / qpmin=0 / qpmax=69 / qpstep=4 / cplxblur=20.0 / qblur=0.5 / ip_ratio=1.40 / pb_ratio=1.30 / aq=1:0.80
Язык : Japanese

Аудио #1
Идентификатор : 2
Формат : AC-3
Формат/Информация : Audio Coding 3
Расширение режима : CM (complete main)
Идентификатор кодека : A_AC3
Продолжительность : 1 ч. 40 м.
Вид битрейта : Постоянный
Битрейт : 384 Кбит/сек
Каналы : 6 каналов
Расположение каналов : Front: L C R, Side: L R, LFE
Частота : 48,0 КГц
Битовая глубина : 16 бит
Метод сжатия : С потерями
Размер потока : 275 Мбайт (5%)
Заголовок : Rus
Язык : Russian

Аудио #2
Идентификатор : 3
Формат : AC-3
Формат/Информация : Audio Coding 3
Расширение режима : CM (complete main)
Идентификатор кодека : A_AC3
Продолжительность : 1 ч. 40 м.
Вид битрейта : Постоянный
Битрейт : 448 Кбит/сек
Каналы : 6 каналов
Расположение каналов : Front: L C R, Side: L R, LFE
Частота : 48,0 КГц
Битовая глубина : 16 бит
Метод сжатия : С потерями
Размер потока : 321 Мбайт (5%)
Заголовок : Eng
Язык : English

Текст #1
Идентификатор : 4
Формат : UTF-8
Идентификатор кодека : S_TEXT/UTF8
Идентификатор кодека/Информация : UTF-8 Plain Text
Заголовок : Rus
Язык : Russian

Текст #2
Идентификатор : 5
Формат : UTF-8
Идентификатор кодека : S_TEXT/UTF8
Идентификатор кодека/Информация : UTF-8 Plain Text
Заголовок : Eng
Язык : English

Меню
00:00:00.000 : :Chapter 01
00:05:32.999 : :Chapter 02
00:12:53.481 : :Chapter 03
00:18:27.897 : :Chapter 04
00:23:51.972 : :Chapter 05
00:30:03.885 : :Chapter 06
00:36:00.992 : :Chapter 07
00:41:54.303 : :Chapter 08
00:49:30.007 : :Chapter 09
00:53:57.859 : :Chapter 10
00:58:38.805 : :Chapter 11
01:04:52.595 : :Chapter 12
01:13:41.082 : :Chapter 13
01:17:42.282 : :Chapter 14
01:23:17.200 : :Chapter 15
01:28:18.376 : :Chapter 16
x264 [info]: frame I:929 Avg QP:16.88 size:183375
x264 [info]: frame P:41628 Avg QP:19.87 size: 67391
x264 [info]: frame B:101346 Avg QP:22.00 size: 25502



   Похожие торренты   Торрент   Размер 
В этой теме нет новых непрочитанных сообщений. Обитель зла: Проклятие / Resident Evil: Damnation / Biohazard: Damnation (2012) BDRip 1080p

16 | 3

6.48 ГБ

В этой теме нет новых непрочитанных сообщений. Обитель зла Проклятие / Biohazard Damnation / Resident Evil Damnation (2012) Blu-ray disc 1080p CEE

2 | 5

32.97 ГБ

В этой теме нет новых непрочитанных сообщений. Обитель зла: Проклятие / Resident Evil: Damnation / Biohazard: Damnation (2012) BDRip-AVC от potroks | P

35 | 3

2.18 ГБ

В этой теме нет новых непрочитанных сообщений. Обитель зла: Проклятие / Resident Evil: Damnation / Biohazard: Damnation (2012) BDRip-AVC | Лицензия

9 | 4

899.49 МБ

В этой теме нет новых непрочитанных сообщений. Обитель зла: Проклятие / Resident Evil: Damnation / Biohazard: Damnation (2012) BDRip 720p | Лицензия

36 | 8

4.63 ГБ

В этой теме нет новых непрочитанных сообщений. Обитель зла: Проклятие / Resident Evil: Damnation / Biohazard: Damnation (2012) BDRip 720p от Leonardo and Scarabey | Лицензия

184 | 29

3.12 ГБ

В этой теме нет новых непрочитанных сообщений. Обитель зла: Проклятие / Resident Evil Damnation / Biohazard: Damnation (2012) HDRip | Лицензия

16 | 4

2.05 ГБ




Вы не можете начинать темы
Вы не можете отвечать на сообщения
Вы не можете редактировать свои сообщения
Вы не можете удалять свои сообщения
Вы не можете добавлять вложения

Перейти:  
Для Мосгорсуда, Роскомнадзора и рекламодателей: mosgorsud-torrent[собачка]yandex.ru
 Вход
ppkBB3cker v.2 © 2008-2014 @ PPK
[ Time : 0.045s | 15 Queries | GZIP : Off ]

Торрент трекер RUTOR.IN, Не можете зайти на rutor.org? Какой новый адрес рутор? Какое зеркало рутор? Не работает rutor.org и зеркала? Тогда наш торрент специально для вас. Rutor.in неофициальное зеркало rutor. В случае если у Вас заблокирован rutor или вдруг Вы не можете на него зайти, то Вы без труда сможете скачать бесплатно и без рекламы последние новинки кино, игр, сериалов и прочего у нас, на Rutor.in. Не нужно использовать прокси, чтобы зайти на рутор, достаточно воспользоваться нашим ресурсом. Все новые фильмы, игры, сериалы, книги и музыка за 2013 и 2014 годы через торрент бесплатно. Скачивайте фильмы в хорошем качестве, игры для пк, xbox, playstation без регистрации. У нас вы найдете новые Зарубежные сериалы и Русские сериалы 2013, 2014, 2015 годов. Оставайтесь с нами, качайте любимые фильмы, игры, сериалы, книги и музыку.