img image001 image001 image001 image001 image001 image001 image001 image001 image001 image001 image001 image001 image001 image001 image001

Planets Sun Sun Sun
Статистика раздачи
Автор: Снежана | Размер: 2.19 ГБ | Добавлен: 27 июл 2013
Раздают: 20    Качают: 2
Скачать торрент
Скачать торрент
Описание торрента

СообщениеДобавлено: 27 июл 2013 

#77
Страна: США
Год выпуска: 2007
Жанр: мультфильм, фантастика, фэнтези, боевик, комедия, приключения
Продолжительность: 7 серий ~ 22 минуты

Перевод: Профессиональный (дублированный) - лицензия
Cубтитры: нет
Оригинальная аудиодорожка: нет

Режиссеры: Себастьян Монтес / Sebastian Montes, Скутер Тидвелл / Scooter Tidwell

В ролях: Тара Стронг, Мэган Смит, Пол Айдинг, Дуайт Шульц, Ди Брэдли Бейкер, Стивен Блум, Ричард Стивен Хорвитз, Джим Уорд, Дейв Уиттенберг, Дэйв Фенной...

Описание: Во время битвы с Анимо герой Бен 10 не послушал Макса и Гвен и был поглощен таинственной световой энергией. Бен не догадывался, что саморазрушительная функция часов Омнитрикс была уже включена, посылая сигнал, который достиг Тетракса. Тетракс приходит на Землю и говорит Бену, что они должны найти создателя часов Азмута.
Он — единственный, кто сможет остановить Омнитрикс от саморазрушения и спасти на только Бена, но и всю Галактику. Путешествуя с Тетраксом через вселенную, Бену приходиться не только сражаться с Вилгахом и его воинами, которые подхватывают сигнал Омнитрикса, но и общаться с Гвен, которая находится на борту и абсолютно уверена, что Бен ничего не может без нее сделать. Они попадаю в тюрьму на одной из планет, где, как им кажется, находится Азмут, но вместо Азмута герои встречают его эксцентричного помощника Myaxx, который направляет их на планету, где живет Азмут.





Исходник: DVD9 R5

Качество: DVDRip-AVC
Формат: MKV

Видео: 720x572@768x572 (4:3), 25 fps, H264 ~ 1853 kbps avg, 0.180 bit/pixel
Аудио: 48 kHz, AC3, 2 ch, 192.00 kbps
Раздача от:
Общее
Полное имя : Ben10.2007.D.DVDRip-AVC_[Youtracker]_by_AVP Studio.mkv
Формат : Matroska
Версия формата : Version 2
Размер файла : 321 Мбайт
Продолжительность : 21 м.
Общий поток : 2047 Кбит/сек
Название фильма : Ben10.2007.D.DVDRip-AVC_[Youtracker]_by_AVP Studio
Дата кодирования : UTC 2012-09-24 10:28:27
Программа кодирования : mkvmerge v5.8.0 ('No Sleep / Pillow') built on Sep 2 2012 15:37:04
Библиотека кодирования : libebml v1.2.3 + libmatroska v1.3.0

Видео
Идентификатор : 1
Формат : AVC
Формат/Информация : Advanced Video Codec
Профиль формата : High@L4.1
Параметр CABAC формата : Да
Параметр ReFrames формата : 11 кадров
Идентификатор кодека : V_MPEG4/ISO/AVC
Продолжительность : 21 м.
Битрейт : 1853 Кбит/сек
Ширина : 720 пикселей
Высота : 572 пикселя
Соотношение сторон : 4:3
Частота кадров : 25,000 кадров/сек
Цветовое пространство : YUV
Субдискретизация насыщенности : 4:2:0
Битовая глубина : 8 бит
Тип развёртки : Прогрессивная
Бит/(Пиксели*Кадры) : 0.180
Размер потока : 285 Мбайт (89%)
Библиотека кодирования : x264 core 119 r2106 07efeb4
Настройки программы : cabac=1 / ref=11 / deblock=1:-2:-1 / analyse=0x3:0x113 / me=umh / subme=9 / psy=1 / psy_rd=1.00:0.20 / mixed_ref=1 / me_range=32 / chroma_me=1 / trellis=1 / 8x8dct=1 / cqm=0 / deadzone=21,11 / fast_pskip=0 / chroma_qp_offset=-3 / threads=6 / sliced_threads=0 / nr=0 / decimate=0 / interlaced=0 / bluray_compat=0 / constrained_intra=0 / bframes=8 / b_pyramid=2 / b_adapt=2 / b_bias=0 / direct=3 / weightb=1 / open_gop=0 / weightp=2 / keyint=250 / keyint_min=25 / scenecut=40 / intra_refresh=0 / rc_lookahead=60 / rc=2pass / mbtree=1 / bitrate=1853 / ratetol=1.0 / qcomp=0.60 / qpmin=0 / qpmax=69 / qpstep=4 / cplxblur=20.0 / qblur=0.5 / ip_ratio=1.40 / aq=1:1.00
Язык : English
Default : Да
Forced : Нет

Аудио
Идентификатор : 2
Формат : AC-3
Формат/Информация : Audio Coding 3
Расширение режима : CM (complete main)
Идентификатор кодека : A_AC3
Продолжительность : 21 м.
Вид битрейта : Постоянный
Битрейт : 192 Кбит/сек
Каналы : 2 канала
Расположение каналов : Front: L R
Частота : 48,0 КГц
Битовая глубина : 16 бит
Метод сжатия : С потерями
Размер потока : 30,1 Мбайт (9%)
Default : Да
Forced : Нет





   Похожие торренты   Торрент   Размер 
В этой теме нет новых непрочитанных сообщений. Бен 10: Секрет Омнитрикса / Ben 10: Secret of the Omnitrix [01-07 из 07] (2007) DVDRip от Youtracker | D

3 | 2

2.19 ГБ

В этой теме нет новых непрочитанных сообщений. Бен 10: Секрет Омнитрикса / Ben 10: Secret of the Omnitrix [01-07 из 07] (2007) DVD9 от Youtracker | D | лицензия

1 | 3

6.76 ГБ

В этой теме нет новых непрочитанных сообщений. Секрет / The Secret (2007) DVDRip

13 | 2

698.52 МБ

В этой теме нет новых непрочитанных сообщений. Секрет / The Secret (2007) ВDRip

94 | 6

1.43 ГБ

В этой теме нет новых непрочитанных сообщений. Секрет / The Secret / Si j'étais toi (2007) BDRip 720p | P2

211 | 30

2.85 ГБ

В этой теме нет новых непрочитанных сообщений. Секрет / Secret / Bu neng shuo de mimi (2007) BDRip

39 | 3

1.46 ГБ

В этой теме нет новых непрочитанных сообщений. Секрет Н.И.М.Х. / Секрет Крыс / The Secret of NIMH (1982) BDRip 1080p

3 | 4

5.9 ГБ




Вы не можете начинать темы
Вы не можете отвечать на сообщения
Вы не можете редактировать свои сообщения
Вы не можете удалять свои сообщения
Вы не можете добавлять вложения

Перейти:  
Для Мосгорсуда, Роскомнадзора и рекламодателей: mosgorsud-torrent[собачка]yandex.ru
 Вход
ppkBB3cker v.2 © 2008-2014 @ PPK
[ Time : 0.049s | 14 Queries | GZIP : Off ]

Торрент трекер RUTOR.IN, Не можете зайти на rutor.org? Какой новый адрес рутор? Какое зеркало рутор? Не работает rutor.org и зеркала? Тогда наш торрент специально для вас. Rutor.in неофициальное зеркало rutor. В случае если у Вас заблокирован rutor или вдруг Вы не можете на него зайти, то Вы без труда сможете скачать бесплатно и без рекламы последние новинки кино, игр, сериалов и прочего у нас, на Rutor.in. Не нужно использовать прокси, чтобы зайти на рутор, достаточно воспользоваться нашим ресурсом. Все новые фильмы, игры, сериалы, книги и музыка за 2013 и 2014 годы через торрент бесплатно. Скачивайте фильмы в хорошем качестве, игры для пк, xbox, playstation без регистрации. У нас вы найдете новые Зарубежные сериалы и Русские сериалы 2013, 2014, 2015 годов. Оставайтесь с нами, качайте любимые фильмы, игры, сериалы, книги и музыку.