img image001 image001 image001 image001 image001 image001 image001 image001 image001 image001 image001 image001 image001 image001 image001

Planets Sun Sun Sun
Статистика раздачи
Автор: Снежана | Размер: 1.4 ГБ | Добавлен: 27 июл 2013
Раздают: 73    Качают: 9
Скачать торрент
Скачать торрент
Описание торрента

СообщениеДобавлено: 27 июл 2013 

#77
Страна: Россия
Год выпуска: 1976-1979

Жанр: мультфильм, мюзикл, боевик, приключения
Продолжительность: 13 серий ~ 10 минут

Оригинальная аудиодорожка: Русский
Субтитры: нет

Режиссер: Давид Черкасский

Описание: Христофору Бонифатьевичу Врунгелю, известному мореходу, профессору навигации, приходит приглашение участвовать в международной регате. Специально для соревнований помощник Врунгеля — матрос Лом — построил яхту «Победа», но во время отплытия две первые буквы её названия отпали с кормовой доски, и она получила название «Беда».
Перед началом регаты «Беда» находится под угрозой снятия с соревнований, так как её экипаж состоит из двух человек вместо положенных трёх. Лом по распоряжению Врунгеля начинает искать на берегу третьего члена экипажа. Так на борту яхты появляется карточный шулер Фукс, никогда не расстающийся со своим футляром от контрабаса, в котором он везёт похищенную статую Венеры.
Арчибальд Денди, спикер яхт-клуба и в то же время главарь местной мафии, даёт своим приспешникам Джулико Бандитто и Де Ля Воро Гангстеритто задание перехватить Венеру (она должна была быть вывезена за границу на самой быстроходной яхте клуба — «Чёрной Каракатице»). Парочка незадачливых бандитов гоняется за «Бедой» по всему миру, то и дело сталкиваясь с расследующим похищение суперагентом Ноль-Ноль-Икс, который, несмотря на различные козни, всюду выходит сухим из воды.
В ходе плавания Врунгель на сутки застревает в фиорде; спасает белок из горящего леса и применяет их в морском деле; придумывает военную хитрость во время боевых манёвров; допускает оплошность в Египте при покупке «страусовых» яиц, из которых вылупляются крокодилы; отмечает при переходе экватора праздник Нептуна; оказывается со своей командой в бандитском плену, но находит путь к спасению благодаря смекалке; дрейфует вместе с яхтой на вершине полярного айсберга; лечит простуженного кашалота; попадает на необитаемый остров, где взрывается действующий вулкан; даёт концерт на Гавайях; и, наконец, остроумно использовав шампанское, блестяще финиширует.
Незадолго до конца истории Фукс признаётся Врунгелю в преступлении. Мудрый капитан предлагает отправить скульптуру по почте из Гонолулу (они с Фуксом как раз останавливаются на Гавайях) обратно в Королевский музей. Злодеи хватают футляр — и он оказывается пуст! Врунгель побеждает, причём не только в соревновании...





Исходник: DVD5 R5
Тип релиза: DVDRip-AVC
Контейнер: MKV

Видео: 688х572@768x572 (4:3), 25 fps, H264 ~ 1435 kbps avg, 0.146 bit/pixel
Аудио: 48 kHz, АС3, 2 ch, 192.00 kbps
Раздача от:
Общее
Полное имя : Prikljuchenija.kapitana.Vrungelja.1976-78.DVDRip-AVC_[AVP Studio].mkv
Формат : Matroska
Версия формата : Version 2
Размер файла : 106 Мбайт
Продолжительность : 9 м. 3 с.
Общий поток : 1631 Кбит/сек
Дата кодирования : UTC 2012-09-24 01:56:39
Программа кодирования : mkvmerge v5.0.1 ('Es ist Sommer') built on Nov 6 2011 16:23:40
Библиотека кодирования : libebml v1.2.2 + libmatroska v1.3.0

Видео
Идентификатор : 1
Формат : AVC
Формат/Информация : Advanced Video Codec
Профиль формата : High@L4.1
Параметр CABAC формата : Да
Параметр ReFrames формата : 11 кадров
Идентификатор кодека : V_MPEG4/ISO/AVC
Продолжительность : 9 м. 3 с.
Битрейт : 1435 Кбит/сек
Ширина : 688 пикселей
Высота : 572 пикселя
Соотношение сторон : 4:3
Соотношение сторон в оригинале : 4:3
Частота кадров : 25,000 кадров/сек
Цветовое пространство : YUV
Субдискретизация насыщенности : 4:2:0
Битовая глубина : 8 бит
Тип развёртки : Прогрессивная
Бит/(Пиксели*Кадры) : 0.146
Размер потока : 91,1 Мбайт (86%)
Библиотека кодирования : x264 core 119 r2106 07efeb4
Настройки программы : cabac=1 / ref=11 / deblock=1:-2:-1 / analyse=0x3:0x113 / me=umh / subme=9 / psy=1 / psy_rd=1.00:0.20 / mixed_ref=1 / me_range=32 / chroma_me=1 / trellis=1 / 8x8dct=1 / cqm=0 / deadzone=21,11 / fast_pskip=0 / chroma_qp_offset=-3 / threads=3 / sliced_threads=0 / nr=0 / decimate=0 / interlaced=0 / bluray_compat=0 / constrained_intra=0 / bframes=8 / b_pyramid=2 / b_adapt=2 / b_bias=0 / direct=3 / weightb=1 / open_gop=0 / weightp=2 / keyint=250 / keyint_min=25 / scenecut=40 / intra_refresh=0 / rc_lookahead=60 / rc=2pass / mbtree=1 / bitrate=1435 / ratetol=1.0 / qcomp=0.60 / qpmin=0 / qpmax=69 / qpstep=4 / cplxblur=20.0 / qblur=0.5 / ip_ratio=1.40 / aq=1:1.00
Default : Да
Forced : Нет

Аудио
Идентификатор : 2
Формат : AC-3
Формат/Информация : Audio Coding 3
Расширение режима : CM (complete main)
Идентификатор кодека : A_AC3
Продолжительность : 9 м. 3 с.
Вид битрейта : Постоянный
Битрейт : 192 Кбит/сек
Каналы : 2 канала
Расположение каналов : Front: L R
Частота : 48,0 КГц
Битовая глубина : 16 бит
Метод сжатия : С потерями
Размер потока : 12,4 Мбайт (12%)
Default : Да
Forced : Нет





   Похожие торренты   Торрент   Размер 
В этой теме нет новых непрочитанных сообщений. Приключения капитана Врунгеля [01-13 из 13] (1976-1979) DVD5 от Youtracker | лицензия

24 | 5

4.01 ГБ

В этой теме нет новых непрочитанных сообщений. Приключения капитана Врунгеля (1976-1979) DVDRip от Alekxandr48

26 | 9

2.05 ГБ

В этой теме нет новых непрочитанных сообщений. Приключения капитана Врунгеля (1976-1979) DVDRip | Реставрация

314 | 29

2.51 ГБ

В этой теме нет новых непрочитанных сообщений. Приключения капитана Врунгеля (1979) DVDRip | Реставрация

104 | 34

1.47 ГБ

В этой теме нет новых непрочитанных сообщений. Новые приключения капитана Врунгеля (1978) DVDRip-AVC

366 | 21

1.79 ГБ

В этой теме нет новых непрочитанных сообщений. Новые приключения капитана Врунгеля (1978) DVDRip

7 | 3

698.33 МБ

В этой теме нет новых непрочитанных сообщений. Мелодия - Приключения капитана Врунгеля (1985) MP3

59 | 2

177.12 МБ




Вы не можете начинать темы
Вы не можете отвечать на сообщения
Вы не можете редактировать свои сообщения
Вы не можете удалять свои сообщения
Вы не можете добавлять вложения

Перейти:  
Для Мосгорсуда, Роскомнадзора и рекламодателей: mosgorsud-torrent[собачка]yandex.ru
 Вход
ppkBB3cker v.2 © 2008-2014 @ PPK
[ Time : 0.053s | 17 Queries | GZIP : Off ]

cron