img image001 image001 image001 image001 image001 image001 image001 image001 image001 image001 image001 image001 image001 image001 image001

Planets Sun Sun Sun
Статистика раздачи
Автор: Снежана | Размер: 200.03 МБ | Добавлен: 27 июл 2013
Раздают: 18    Качают: 3
Скачать торрент
Скачать торрент
Описание торрента

СообщениеДобавлено: 27 июл 2013 

#77
Год выпуска: 2011
Страна: США
Жанр: мультфильм, короткометражка
Продолжительность: 00:25:33

Перевод: Профессиональный (дублированный)
Cубтитры: нет

Режиссер: Карен Дишер / Karen Disher

В ролях: Джон Легуизамо (Sid, озвучка), Шонн Уильям Скотт (Crash, озвучка), ТиДжей Миллер (Prancer, озвучка), Кьяра Браво (Peaches, озвучка), Куин Латифа (Ellie, озвучка), Дэнис Лири (Diego, озвучка), Рэй Романо (Manny, озвучка), Джошуа Раш (Actor, озвучка), Крис Уэдж (Scrat, озвучка)

Описание: Когда Сид случайно разрушает рождественский камень, Мэнни говорит ему, что Сид попал в черный список Санты, и что ленивцу придется лететь на северный полюс просить извинения у Санты. На северном полюсе Сид хотел все сделать как лучше, но только усугубил ситуацию. Теперь дело за Мэнни и компанией, только они объединившись сохранят Рождество для всего мира!





Исходник: Blu-ray 1080p
Качество: BDRip
Формат: AVI

Видео: 688x384 (16:9), 23,976 fps, XviD ~ 957 kbps avg, 0.151 bit/pixel
Аудио: 48,0 Кгц, MP3, 128 Kbps, CBR 2 ch
Общее
Полное имя : Lednikovyj.period.Gigantskoe.Rozhdestvo.2011Lednikovyj.period.Gigantskoe.Rozhdestvo.2011.BDRip.avi
Формат : AVI
Формат/Информация : Audio Video Interleave
Размер файла : 200 Мбайт
Продолжительность : 25 м.
Общий поток : 1095 Кбит/сек
Программа кодирования : VirtualDubMod 1.5.10.3 | www.virtualdub-fr.org || (build 2550/release)
Библиотека кодирования : VirtualDubMod build 2550/release

Видео
Идентификатор : 0
Формат : MPEG-4 Visual
Профиль формата : Advanced Simple@L5
Параметр BVOP формата : 1
Параметр QPel формата : Нет
Параметр GMC формата : Без точки перехода
Параметр матрицы формата : Выборочная
Идентификатор кодека : XVID
Идентификатор кодека/Подсказка : XviD
Продолжительность : 25 м.
Битрейт : 957 Кбит/сек
Ширина : 688 пикселей
Высота : 384 пикселя
Соотношение сторон : 16:9
Частота кадров : 23,976 кадра/сек
Цветовое пространство : YUV
Субдискретизация насыщенности : 4:2:0
Битовая глубина : 8 бит
Тип развёртки : Прогрессивная
Метод сжатия : С потерями
Бит/(Пиксели*Кадры) : 0.151
Размер потока : 175 Мбайт (87%)
Библиотека кодирования : XviD 64

Аудио
Идентификатор : 1
Формат : MPEG Audio
Версия формата : Version 1
Профиль формата : Layer 3
Идентификатор кодека : 55
Идентификатор кодека/Подсказка : MP3
Продолжительность : 25 м.
Вид битрейта : Постоянный
Битрейт : 128 Кбит/сек
Каналы : 2 канала
Частота : 48,0 КГц
Метод сжатия : С потерями
Размер потока : 23,4 Мбайт (12%)
Выравнивание : Соединение по промежуткам
Продолжительность промежутка : 42 мс. (1,00 видеокадр)
Время предзагрузки промежутка : 504 мс.
Библиотека кодирования : L3.99r
Настройки программы : -m s -V 4 -q 2 -lowpass 17 -b 128



Раздача от:



   Похожие торренты   Торрент   Размер 
В этой теме нет новых непрочитанных сообщений. Ледниковый период: Гигантское Рождество / Ice Age: A Mammoth Christmas (2011) DVDRip-AVC от Youtracker

113 | 12

744.74 МБ

В этой теме нет новых непрочитанных сообщений. Ледниковый период 1-3 + Гигантское Рождество / Ice Age 1-3 + A Mammoth Christmas (2002-2011) 3xDVD9, 2xDVD5 от Youtracker

116 | 6

23.43 ГБ

В этой теме нет новых непрочитанных сообщений. Ледниковый период: Гигантское Рождество / Ice Age: A Mammoth Christmas (2011) BDRip от HELLYWOOD

22 | 6

613.84 МБ

В этой теме нет новых непрочитанных сообщений. Ледниковый период: Гигантское Рождество / Ice Age: A Mammoth Christmas (2011) BDRip 720p от R.G. AVI AVC

9 | 6

741.64 МБ

В этой теме нет новых непрочитанных сообщений. Ледниковый период: Гигантское Рождество / Ice Age: A Mammoth Christmas (2011) BDRip от HQ-ViDEO

54 | 5

525.78 МБ

В этой теме нет новых непрочитанных сообщений. Ледниковый период: Гигантское Рождество / Ice Age: A Mammoth Christmas (2011) BDRip-AVC от HQ-ViDEO

10 | 6

623.9 МБ

В этой теме нет новых непрочитанных сообщений. Ледниковый период: Гигантское Рождество / Ice Age: A Mammoth Christmas (2011) BDRip от HQCLUB

6 | 2

498.54 МБ




Вы не можете начинать темы
Вы не можете отвечать на сообщения
Вы не можете редактировать свои сообщения
Вы не можете удалять свои сообщения
Вы не можете добавлять вложения

Перейти:  
Для Мосгорсуда, Роскомнадзора и рекламодателей: mosgorsud-torrent[собачка]yandex.ru
 Вход
ppkBB3cker v.2 © 2008-2014 @ PPK
[ Time : 0.042s | 15 Queries | GZIP : Off ]

cron