img image001 image001 image001 image001 image001 image001 image001 image001 image001 image001 image001 image001 image001 image001 image001

Planets Sun Sun Sun
Статистика раздачи
Автор: Снежана | Размер: 743.29 МБ | Добавлен: 27 июл 2013
Раздают: 60    Качают: 4
Скачать торрент
Скачать торрент
Описание торрента

СообщениеДобавлено: 27 июл 2013 

#77
Страна: США
Год выпуска: 1955
Жанр: Мультипликация
Продолжительность: 01:16:23

Перевод: Профессиональный (дублированный)
Оригинальная аудиодорожка: нет
Субтитры: нет

Режиссёр: Клайд Джероними, Уилфред Джексон / Clyde Geronimi, Wilfred Jackson

Роли озвучивали: Пегги Ли, Барбара Ладди, Ларри Робертс, Билл Томпсон, Билл Бауком, Стэн Фреберг, Верна Фелтон, Алан Рид, Джордж Гивот, Ли Миллар, The Mellomen

Описание: Трогательная и захватывающая история сближения двух абсолютно разных собак — породистой комнатной неженки и бездомного дворняги. Изящная и пушистая как игрушка, кокер-спаниельша Леди была любимицей хозяев, пока в их семье не появился младенец. Одетый намордник стал последней каплей, подтолкнувшей обиженную героиню к бегству. Но на улице ее поджидала целая куча опасностей, о существовании которых она даже не подозревала. И тогда на помощь миниатюрной черноглазой красотке пришел разбитной пес Бродяга, благородство которого было не в породе, а в душе. Проявив отзывчивость и мужество, он в конце концов завоевал сердце нежной Леди.





Исходник: BDRemux 1080p
Качество: BDRip
Формат: AVI

Видео: 704x272 (2.588:1), 23,976 fps, XviD 64 ~ 1223 kbps avg, 0.266 bit/pixel
Аудио: MP3, 2 ch, 128 Кбит/сек, 48,0 КГц
Раздача от:
Общее
Полное имя : Ledi.i.Brodyaga.1955.DLedi.i.Brodyaga.1955.D.BDRip.745MB.avi
Формат : AVI
Формат/Информация : Audio Video Interleave
Размер файла : 743 Мбайт
Продолжительность : 1 ч. 16 м.
Общий поток : 1360 Кбит/сек
Программа кодирования : VirtualDubMod 1.5.10.3 | www.virtualdub-fr.org || (build 2550/release)
Библиотека кодирования : VirtualDubMod build 2550/release

Видео
Идентификатор : 0
Формат : MPEG-4 Visual
Профиль формата : Advanced Simple@L5
Параметр BVOP формата : 1
Параметр QPel формата : Нет
Параметр GMC формата : Без точки перехода
Параметр матрицы формата : Выборочная
Идентификатор кодека : XVID
Идентификатор кодека/Подсказка : XviD
Продолжительность : 1 ч. 16 м.
Битрейт : 1223 Кбит/сек
Ширина : 704 пикселя
Высота : 272 пикселя
Соотношение сторон : 2,588
Частота кадров : 23,976 кадра/сек
Цветовое пространство : YUV
Субдискретизация насыщенности : 4:2:0
Битовая глубина : 8 бит
Тип развёртки : Прогрессивная
Метод сжатия : С потерями
Бит/(Пиксели*Кадры) : 0.266
Размер потока : 668 Мбайт (90%)
Библиотека кодирования : XviD 64

Аудио
Идентификатор : 1
Формат : MPEG Audio
Версия формата : Version 1
Профиль формата : Layer 3
Идентификатор кодека : 55
Идентификатор кодека/Подсказка : MP3
Продолжительность : 1 ч. 16 м.
Вид битрейта : Постоянный
Битрейт : 128 Кбит/сек
Каналы : 2 канала
Частота : 48,0 КГц
Метод сжатия : С потерями
Размер потока : 69,9 Мбайт (9%)
Выравнивание : Соединение по промежуткам
Продолжительность промежутка : 42 мс. (1,00 видеокадр)
Время предзагрузки промежутка : 504 мс.
Библиотека кодирования : LAME3.99.1





   Похожие торренты   Торрент   Размер 
В этой теме нет новых непрочитанных сообщений. Леди и бродяга / Lady and the Tramp (1955) BDRip-AVC

172 | 12

1.32 ГБ

В этой теме нет новых непрочитанных сообщений. Леди и бродяга / Lady and the Tramp (1955) BDRip от HQCLUB

163 | 2

1.45 ГБ

В этой теме нет новых непрочитанных сообщений. Леди и бродяга / Lady and the Tramp (1955) BDRip от HELLYWOOD

218 | 9

1.45 ГБ

В этой теме нет новых непрочитанных сообщений. Леди и бродяга / Lady and the Tramp (1955) BDRip-AVC | iPad

148 | 5

848.51 МБ

В этой теме нет новых непрочитанных сообщений. Леди и бродяга / Lady and the Tramp (1955) BDRip 720p

5 | 2

3.39 ГБ

В этой теме нет новых непрочитанных сообщений. Леди и бродяга / Lady and the Tramp (1955) BDRip - ExKinoRay

78 | 8

1.09 ГБ

В этой теме нет новых непрочитанных сообщений. Леди и бродяга / Lady and the Tramp (1955) BDRip 1080p

10 | 2

2.4 ГБ




Вы не можете начинать темы
Вы не можете отвечать на сообщения
Вы не можете редактировать свои сообщения
Вы не можете удалять свои сообщения
Вы не можете добавлять вложения

Перейти:  
Для Мосгорсуда, Роскомнадзора и рекламодателей: mosgorsud-torrent[собачка]yandex.ru
 Вход
ppkBB3cker v.2 © 2008-2014 @ PPK
[ Time : 0.093s | 15 Queries | GZIP : Off ]

Торрент трекер RUTOR.IN, Не можете зайти на rutor.org? Какой новый адрес рутор? Какое зеркало рутор? Не работает rutor.org и зеркала? Тогда наш торрент специально для вас. Rutor.in неофициальное зеркало rutor. В случае если у Вас заблокирован rutor или вдруг Вы не можете на него зайти, то Вы без труда сможете скачать бесплатно и без рекламы последние новинки кино, игр, сериалов и прочего у нас, на Rutor.in. Не нужно использовать прокси, чтобы зайти на рутор, достаточно воспользоваться нашим ресурсом. Все новые фильмы, игры, сериалы, книги и музыка за 2013 и 2014 годы через торрент бесплатно. Скачивайте фильмы в хорошем качестве, игры для пк, xbox, playstation без регистрации. У нас вы найдете новые Зарубежные сериалы и Русские сериалы 2013, 2014, 2015 годов. Оставайтесь с нами, качайте любимые фильмы, игры, сериалы, книги и музыку.