img image001 image001 image001 image001 image001 image001 image001 image001 image001 image001 image001 image001 image001 image001 image001

Planets Sun Sun Sun
Статистика раздачи
Автор: Снежана | Размер: 743.57 МБ | Добавлен: 27 июл 2013
Раздают: 1    Качают: 2
Скачать торрент
Скачать торрент
Описание торрента

СообщениеДобавлено: 27 июл 2013 

#77
Год выпуска: 2002
Страна: Испания
Киностудия: Milimetros Feature Animation

Жанр: мультфильм, фэнтези, приключения, семейный
Продолжительность: 01:13:45

Перевод: Профессиональный (дублированный)
Субтитры: нет
Оригинальная аудиодорожка: нет

Режиссер: Анхель Изкуэрдо / Angel Izquierdo

Роли озвучивали: Роберт Паттерсон, Сью Флэк, Joshua Zamrycki, Amber Ockrassa...

Описание: История о жизни в Стране Драконов, которая существует в параллельном, невидимом мире среди живописных скал и бурных водопадов. Двери Страны Драконов всегда открыты для людей, готовых поверить в чудо, в ком еще не угасли дух приключений, жажда великих подвигов и гениальных открытий. Но даже здесь, в самом сердце этой солнечной земли, притаилось зло и коварство. Колдун Септимус, заточенный в этом месте за свои злодеяния, стремится вернуться в мир людей и покорить его, захватив несметные сокровища Страны Драконов. Он не остановится ни перед чем, чтобы воплотить свой безумный план. Кевин, случайно оказавшийся в Стране Драконов, попадает в стремительный водоворот событий. И только великая сила дружбы людей и драконов, их смелость и смекалка, помогут остановить зло…





Исходник: DVD5
Тип релиза: DVDRip
Контейнер: AVI

Видео: 704x400 (16:9), 25 fps, XviD ~ 1272 kbps avg, 0.181 bit/pixel
Аудио: 48 kHz, МР3, 2 ch, 128.00 kbps
Общее
Полное имя : Kevin.v.strane.drakonov.2002.D.DVDRip.745MB.avi
Формат : AVI
Формат/Информация : Audio Video Interleave
Размер файла : 744 Мбайт
Продолжительность : 1 ч. 13 м.
Общий поток : 1410 Кбит/сек
Программа кодирования : VirtualDubMod 1.5.10.3 (build 2550/release)
Библиотека кодирования : VirtualDubMod build 2550/release

Видео
Идентификатор : 0
Формат : MPEG-4 Visual
Профиль формата : Advanced Simple@L5
Параметр BVOP формата : 1
Параметр QPel формата : Нет
Параметр GMC формата : Без точки перехода
Параметр матрицы формата : Выборочная
Идентификатор кодека : XVID
Идентификатор кодека/Подсказка : XviD
Продолжительность : 1 ч. 13 м.
Битрейт : 1272 Кбит/сек
Ширина : 704 пикселя
Высота : 400 пикселей
Соотношение сторон : 16:9
Частота кадров : 25,000 кадров/сек
Цветовое пространство : YUV
Субдискретизация насыщенности : 4:2:0
Битовая глубина : 8 бит
Тип развёртки : Прогрессивная
Метод сжатия : С потерями
Бит/(Пиксели*Кадры) : 0.181
Размер потока : 671 Мбайт (90%)
Библиотека кодирования : XviD 64

Аудио
Идентификатор : 1
Формат : MPEG Audio
Версия формата : Version 1
Профиль формата : Layer 3
Режим : Joint stereo
Расширение режима : MS Stereo
Идентификатор кодека : 55
Идентификатор кодека/Подсказка : MP3
Продолжительность : 1 ч. 13 м.
Вид битрейта : Постоянный
Битрейт : 128 Кбит/сек
Каналы : 2 канала
Частота : 48,0 КГц
Метод сжатия : С потерями
Размер потока : 67,5 Мбайт (9%)
Выравнивание : Соединение по промежуткам
Продолжительность промежутка : 40 мс. (1,00 видеокадр)
Время предзагрузки промежутка : 504 мс.



Раздача от:



   Похожие торренты   Торрент   Размер 
В этой теме нет новых непрочитанных сообщений. Кевин в стране Драконов / Dragon Hill. La colina del dragón (2002) DVD5 от Youtracker | D | лицензия

1 | 2

4.08 ГБ

В этой теме нет новых непрочитанных сообщений. Кевин в стране Драконов / Dragon Hill. La colina del dragón (2002) DVDRip

1 | 2

1008.16 МБ

В этой теме нет новых непрочитанных сообщений. Кевин в Стране Драконов: Магический Куб / El cubo magico (2006) DVDRip от Киномагия

2 | 2

1.36 ГБ

В этой теме нет новых непрочитанных сообщений. Кевин в Стране Драконов: Магический Куб / El cubo magico (2006) DVD5

0 | 2

3.61 ГБ

В этой теме нет новых непрочитанных сообщений. Кевин в стране Драконов: Магический куб / El cubo magico (The Magic Cube) (2006) DVD5 от New-Team | D | Лицензия

18 | 15

4.01 ГБ

В этой теме нет новых непрочитанных сообщений. Драконов огонь / Dragon Fire (1993) DVDRip | A

44 | 37

1.46 ГБ

В этой теме нет новых непрочитанных сообщений. Повелители драконов / Dragon Knight 3D онлайн (2010) PC

3 | 13

794.86 МБ




Вы не можете начинать темы
Вы не можете отвечать на сообщения
Вы не можете редактировать свои сообщения
Вы не можете удалять свои сообщения
Вы не можете добавлять вложения

Перейти:  
Для Мосгорсуда, Роскомнадзора и рекламодателей: mosgorsud-torrent[собачка]yandex.ru
 Вход
ppkBB3cker v.2 © 2008-2014 @ PPK
[ Time : 7.801s | 16 Queries | GZIP : Off ]

Торрент трекер RUTOR.IN, Не можете зайти на rutor.org? Какой новый адрес рутор? Какое зеркало рутор? Не работает rutor.org и зеркала? Тогда наш торрент специально для вас. Rutor.in неофициальное зеркало rutor. В случае если у Вас заблокирован rutor или вдруг Вы не можете на него зайти, то Вы без труда сможете скачать бесплатно и без рекламы последние новинки кино, игр, сериалов и прочего у нас, на Rutor.in. Не нужно использовать прокси, чтобы зайти на рутор, достаточно воспользоваться нашим ресурсом. Все новые фильмы, игры, сериалы, книги и музыка за 2013 и 2014 годы через торрент бесплатно. Скачивайте фильмы в хорошем качестве, игры для пк, xbox, playstation без регистрации. У нас вы найдете новые Зарубежные сериалы и Русские сериалы 2013, 2014, 2015 годов. Оставайтесь с нами, качайте любимые фильмы, игры, сериалы, книги и музыку.
cron