img image001 image001 image001 image001 image001 image001 image001 image001 image001 image001 image001 image001 image001 image001 image001 image001

Planets Sun Sun Sun
Статистика раздачи
Автор: Снежана | Размер: 446.44 МБ | Добавлен: 27 июл 2013
Раздают: 38    Качают: 4
Скачать торрент
Скачать торрент
Описание торрента

СообщениеДобавлено: 27 июл 2013 

#77
Год выпуска: 1953
Страна: CCCР
Студия: Союзмультфильм

Жанр: мультфильм, короткометражка
Продолжительность: 00:29:12

Режиссер: Владимир Полковников, Леонид Амальрик

Описание: Нерадивый школьник попадает в волшебный магазин, где маг-завмаг продает ему волшебные вещи, позволяющие добиваться успеха без труда и без науки. Школьник убеждается, что никакое волшебство не заменит труда и усердия...





Качество: DVDRip
Формат: AVI

Видео: 688x512 (4:3), 25 fps, XVID ~ 1935 kbps avg, 0.220 bit/pixel
Аудио: 48 kHz, AC3, 2 ch, 192.00 kbps


Раздача от:
Общее
Полное имя : MultfilmyVolshebnyj.magazin.1953.avi
Формат : AVI
Формат/Информация : Audio Video Interleave
Размер файла : 446 Мбайт
Продолжительность : 29 м.
Общий поток : 2136 Кбит/сек
Программа кодирования : VirtualDubMod 1.5.10.3 | www.virtualdub-fr.org || (build 2550/release)
Библиотека кодирования : VirtualDubMod build 2550/release

Видео
Идентификатор : 0
Формат : MPEG-4 Visual
Профиль формата : Advanced Simple@L5
Параметр BVOP формата : 1
Параметр QPel формата : Нет
Параметр GMC формата : Без точки перехода
Параметр матрицы формата : Выборочная
Идентификатор кодека : XVID
Идентификатор кодека/Подсказка : XviD
Продолжительность : 29 м.
Битрейт : 1935 Кбит/сек
Ширина : 688 пикселей
Высота : 512 пикселей
Соотношение сторон : 4:3
Частота кадров : 25,000 кадров/сек
Цветовое пространство : YUV
Субдискретизация насыщенности : 4:2:0
Битовая глубина : 8 бит
Тип развёртки : Прогрессивная
Метод сжатия : С потерями
Бит/(Пиксели*Кадры) : 0.220
Размер потока : 404 Мбайт (91%)
Библиотека кодирования : XviD 65

Аудио
Идентификатор : 1
Формат : AC-3
Формат/Информация : Audio Coding 3
Расширение режима : CM (complete main)
Идентификатор кодека : 2000
Продолжительность : 29 м.
Вид битрейта : Постоянный
Битрейт : 192 Кбит/сек
Каналы : 2 канала
Расположение каналов : Front: L R
Частота : 48,0 КГц
Битовая глубина : 16 бит
Метод сжатия : С потерями
Размер потока : 40,1 Мбайт (9%)
Выравнивание : Разделение по промежуткам
Продолжительность промежутка : 40 мс. (1,00 видеокадр)
Время предзагрузки промежутка : 500 мс





   Похожие торренты   Торрент   Размер 
В этой теме нет новых непрочитанных сообщений. Книжный магазин Блэка / Black Books [s01 - s03] (2000 - 2004) DVDRip-AVC от Brazzass

256 | 91

10.71 ГБ

В этой теме нет новых непрочитанных сообщений. Волшебный клад (1950) DVDRip

22 | 5

128.52 МБ

В этой теме нет новых непрочитанных сообщений. Волшебный портрет (1997) DVDRip-AVC

3 | 0

1.45 ГБ

В этой теме нет новых непрочитанных сообщений. Волшебный голос Джельсомино (1977) DVDRip-AVC

155 | 15

2.9 ГБ

В этой теме нет новых непрочитанных сообщений. Феникс и волшебный ковер / The Phoenix and the Magic Carpet (1995) DVDRip | P

45 | 4

1.46 ГБ

В этой теме нет новых непрочитанных сообщений. Волшебство Санта Клауса / Волшебный мешок Санты / The Magic Sack of Santa Claus (2000) DVDRip от New-Team | P

28 | 2

746.98 МБ

В этой теме нет новых непрочитанных сообщений. Магазин Чан-су / Jangsoosanghwe (2015) BDRip 720p | L2

3 | 0

5.04 ГБ




Вы не можете начинать темы
Вы не можете отвечать на сообщения
Вы не можете редактировать свои сообщения
Вы не можете удалять свои сообщения
Вы не можете добавлять вложения

Перейти:  
 Вход
ppkBB3cker v.2 © 2008-2014 @ PPK
[ Time : 0.026s | 17 Queries | GZIP : Off ]

cron