img image001 image001 image001 image001 image001 image001 image001 image001 image001 image001 image001 image001 image001 image001 image001

Planets Sun Sun Sun
Статистика раздачи
Автор: Снежана | Размер: 1.46 ГБ | Добавлен: 27 июл 2013
Раздают: 41    Качают: 3
Скачать торрент
Скачать торрент
Описание торрента

СообщениеДобавлено: 27 июл 2013 

#77
Страна: США
Жанр: мультфильм, мюзикл, фэнтези, комедия, приключения, семейный
Продолжительность: 01:29:02
Год выпуска: 1997

Перевод: Профессиональный (дублированный) лицензия
Cубтитры: нет
Оригинальная аудиодорожка: Английский

Режиссёр: Рон Клементс, Джон Маскер / Ron Clements, John Musker

Роли озвучивали: Тейт Донован, Джошуа Китон, Роджер Барт, Дэнни ДеВито, Джеймс Вудс, Сьюзэн Иган, Боб Голдтуэйт, Мэтт Фрюэр, Рип Торн, Саманта Эггар
Роли дублировали: Родион Приходько, Игорь Балакирев, Ярослав Иванов, Борис Хвошнянский, Сергей Мардарь

Описание: Аид — властитель загробного мира. Много лет назад он был фактически сослан своим старшим братом Зевсом в глубины Ада и теперь намерен наверстать упущенное, собрав армию монстров и захватив Олимп. Единственный, кто может помешать Аиду — сын Зевса, юный Геркулес, поэтому прислужники злодея похищают младенца и превращают его в простого смертного.
Спустя много лет юноша узнает о своем происхождении и ставит целью вернуться домой, но для этого ему придется совершить немало подвигов и стать настоящим героем. Но, как выясняется, даже победы над силами зла недостаточно, чтобы вернуть божественное начало…





Исходник: DVD9 R5
Тип релиза: DVDRip-AVC
Контейнер: MKV

Видео: 712x456@758x456 (1,660:1), 25 fps, H264 ~ 1763 kbps avg, 0.217 bit/pixel
Аудио 1: 48 kHz, AC3, 2 ch, 192.00 kbps
Аудио 2: 48 kHz, AC3, 6 ch, 384.00 kbps

Раздача от:
Общее
Полное имя : Gerkules.1997.D.DVDRip-AVC_[Youtracker]_by_AVP Studio.mkv
Формат : Matroska
Версия формата : Version 2
Размер файла : 1,46 Гбайт
Продолжительность : 1 ч. 29 м.
Общий поток : 2341 Кбит/сек
Название фильма : Gerkules.1997.D.DVDRip-AVC_[Youtracker]_by_AVP Studio
Дата кодирования : UTC 2012-10-02 12:12:00
Программа кодирования : mkvmerge v5.8.0 ('No Sleep / Pillow') built on Sep 2 2012 15:37:04
Библиотека кодирования : libebml v1.2.3 + libmatroska v1.3.0

Видео
Идентификатор : 1
Формат : AVC
Формат/Информация : Advanced Video Codec
Профиль формата : High@L4.1
Параметр CABAC формата : Да
Параметр ReFrames формата : 11 кадров
Идентификатор кодека : V_MPEG4/ISO/AVC
Продолжительность : 1 ч. 29 м.
Битрейт : 1763 Кбит/сек
Ширина : 712 пикселей
Высота : 456 пикселей
Соотношение сторон : 1,664
Соотношение сторон в оригинале : 1,665
Частота кадров : 25,000 кадров/сек
Цветовое пространство : YUV
Субдискретизация насыщенности : 4:2:0
Битовая глубина : 8 бит
Тип развёртки : Прогрессивная
Бит/(Пиксели*Кадры) : 0.217
Размер потока : 1,07 Гбайт (73%)
Заголовок : Источник DVD
Библиотека кодирования : x264 core 119 r2106 07efeb4
Настройки программы : cabac=1 / ref=11 / deblock=1:-2:-1 / analyse=0x3:0x113 / me=umh / subme=9 / psy=1 / psy_rd=1.00:0.20 / mixed_ref=1 / me_range=32 / chroma_me=1 / trellis=1 / 8x8dct=1 / cqm=0 / deadzone=21,11 / fast_pskip=0 / chroma_qp_offset=-3 / threads=3 / sliced_threads=0 / nr=0 / decimate=0 / interlaced=0 / bluray_compat=0 / constrained_intra=0 / bframes=8 / b_pyramid=2 / b_adapt=2 / b_bias=0 / direct=3 / weightb=1 / open_gop=0 / weightp=2 / keyint=250 / keyint_min=25 / scenecut=40 / intra_refresh=0 / rc_lookahead=60 / rc=2pass / mbtree=1 / bitrate=1763 / ratetol=1.0 / qcomp=0.60 / qpmin=0 / qpmax=69 / qpstep=4 / cplxblur=20.0 / qblur=0.5 / ip_ratio=1.40 / aq=1:1.00
Язык : English
Default : Да
Forced : Нет

Аудио #1
Идентификатор : 2
Формат : AC-3
Формат/Информация : Audio Coding 3
Расширение режима : CM (complete main)
Идентификатор кодека : A_AC3
Продолжительность : 1 ч. 29 м.
Вид битрейта : Постоянный
Битрейт : 192 Кбит/сек
Каналы : 2 канала
Расположение каналов : Front: L R
Частота : 48,0 КГц
Битовая глубина : 16 бит
Метод сжатия : С потерями
Размер потока : 122 Мбайт (8%)
Заголовок : Источник DVD
Язык : Russian
Default : Да
Forced : Нет

Аудио #2
Идентификатор : 3
Формат : AC-3
Формат/Информация : Audio Coding 3
Расширение режима : CM (complete main)
Идентификатор кодека : A_AC3
Продолжительность : 1 ч. 29 м.
Вид битрейта : Постоянный
Битрейт : 384 Кбит/сек
Каналы : 6 каналов
Расположение каналов : Front: L C R, Side: L R, LFE
Частота : 48,0 КГц
Битовая глубина : 16 бит
Метод сжатия : С потерями
Задержка видео : 120 мс.
Размер потока : 245 Мбайт (16%)
Заголовок : Источник DVD
Язык : English
Default : Нет
Forced : Нет

Меню
00:00:00.000 : ru:00:00:00.000000000
00:05:00.000 : :00:05:00.000000000
00:10:00.000 : :00:10:00.000000000
00:15:00.000 : :00:15:00.000000000
00:20:00.000 : :00:20:00.000000000
00:25:00.000 : :00:25:00.000000000
00:30:00.000 : :00:30:00.000000000
00:35:00.000 : :00:35:00.000000000
00:40:00.000 : :00:40:00.000000000
00:45:00.000 : :00:45:00.000000000
00:50:00.000 : :00:50:00.000000000
00:55:00.000 : :00:55:00.000000000
01:00:00.000 : :01:00:00.000000000
01:05:00.000 : :01:05:00.000000000
01:10:00.000 : :01:10:00.000000000
01:15:00.000 : :01:15:00.000000000
01:20:00.000 : :01:20:00.000000000
01:25:00.000 : :01:25:00.000000000





   Похожие торренты   Торрент   Размер 
В этой теме нет новых непрочитанных сообщений. Геркулес / Hercules (1997) DVDRip от Youtracker | D

22 | 3

1.46 ГБ

В этой теме нет новых непрочитанных сообщений. Геркулес / Hercules (1997) HDTVRip от Youtracker | D

26 | 2

744.57 МБ

В этой теме нет новых непрочитанных сообщений. Геркулес / Hercules (1997) DVD9 от Youtracker | D | Лицензия

3 | 2

7.09 ГБ

В этой теме нет новых непрочитанных сообщений. Геркулес на Олимпе / Hercules (1997) DVD5 от Youtracker

0 | 2

2.49 ГБ

В этой теме нет новых непрочитанных сообщений. Геркулес / Hercules (1997) DVDRip

29 | 4

744.17 МБ

В этой теме нет новых непрочитанных сообщений. Геркулес на Олимпе / Hercules (1997) DVDRip от KinoRay & Sheikn

63 | 27

609.52 МБ

В этой теме нет новых непрочитанных сообщений. Геркулес / Hercules (1997) BDRip-AVC от New-Team | D

124 | 16

745.45 МБ




Вы не можете начинать темы
Вы не можете отвечать на сообщения
Вы не можете редактировать свои сообщения
Вы не можете удалять свои сообщения
Вы не можете добавлять вложения

Перейти:  
Для Мосгорсуда, Роскомнадзора и рекламодателей: mosgorsud-torrent[собачка]yandex.ru
 Вход
ppkBB3cker v.2 © 2008-2014 @ PPK
[ Time : 0.594s | 15 Queries | GZIP : Off ]

Торрент трекер RUTOR.IN, Не можете зайти на rutor.org? Какой новый адрес рутор? Какое зеркало рутор? Не работает rutor.org и зеркала? Тогда наш торрент специально для вас. Rutor.in неофициальное зеркало rutor. В случае если у Вас заблокирован rutor или вдруг Вы не можете на него зайти, то Вы без труда сможете скачать бесплатно и без рекламы последние новинки кино, игр, сериалов и прочего у нас, на Rutor.in. Не нужно использовать прокси, чтобы зайти на рутор, достаточно воспользоваться нашим ресурсом. Все новые фильмы, игры, сериалы, книги и музыка за 2013 и 2014 годы через торрент бесплатно. Скачивайте фильмы в хорошем качестве, игры для пк, xbox, playstation без регистрации. У нас вы найдете новые Зарубежные сериалы и Русские сериалы 2013, 2014, 2015 годов. Оставайтесь с нами, качайте любимые фильмы, игры, сериалы, книги и музыку.
cron