img image001 image001 image001 image001 image001 image001 image001 image001 image001 image001 image001 image001 image001 image001 image001

Planets Sun Sun Sun
Статистика раздачи
Автор: Снежана | Размер: 300.26 МБ | Добавлен: 27 июл 2013
Раздают: 20    Качают: 4
Скачать торрент
Скачать торрент
Описание торрента

СообщениеДобавлено: 27 июл 2013 

#77

Информация о фильме

Название : Кунг-Фу Панда: Секреты мастеров
Оригинальное название : Kung Fu Panda: Secrets of the Masters
Год выхода : 2011
Жанр : мультфильм, короткометражка, комедия, приключения
Режиссер : Энтони Леондис / Anthony Leondis
Роли озвучивали : Джек Блэк (Jack Black), Анджелина Джоли (Angelina Jolie), Сет Роген (Seth Rogen), Пол Шеер (Paul Schee), Деннис Хейсбёрт (Dennis Haysbert), Сумали Монтано (Sumalee Montano), Дастин Хоффман (Dustin Hoffman)



Описание : Под предлогом большой опасности По приводит Мастера Тигрицу и Мастера Богомола на новую выставку Мастеров в честь мастера Носорога, Мастер Буйвола, и Мастера Крокодила. Хотя Тигрица и Богомол поняли что это обман, По интригует их интересной историей о том как три мастера впервые объединились.
Страна : США
Выпущено : DreamWorks Animation
Продолжительность : 00:22:15
Перевод : Любительский (многоголосый закадровый)
Русские субтитры : есть

Файл
Формат видео : MKV
Качество : DVDRip-AVC

Видео : V_MPEG4/ISO/AVC, 720x400, 16:9, 25.000 fps, 1500 Kbps.
Звук 1 : 48 kHz, AC3 Dolby Digital, 2/0 (L,R) ch, ~192.00 kbps (русский)
Звук 2 : 48 kHz, AC3 Dolby Digital, 2/0 (L,R) ch, ~192.00 kbps (английский)
Субтитры : Русские softsub (SRT)





General
Unique ID : 223164104036984102233046406333599006919 (0xA7E3D7D1F9A81B1B96FAA7200B4340C7)
Complete name : C:Кунг-Фу панда Секреты мастеров.mkv
Format : Matroska
Format version : Version 2
File size : 300 MiB
Duration : 22mn 15s
Overall bit rate : 1 886 Kbps
Encoded date : UTC 2012-03-04 12:09:36
Writing application : mkvmerge v5.2.0 ('I can't explain') built on Dec 18 2011 18:12:03
Writing library : libebml v1.2.3 + libmatroska v1.3.0

Video
ID : 1
Format : AVC
Format/Info : Advanced Video Codec
Format profile : High@L3.1
Format settings, CABAC : Yes
Format settings, ReFrames : 16 frames
Codec ID : V_MPEG4/ISO/AVC
Duration : 22mn 15s
Bit rate : 1 500 Kbps
Width : 720 pixels
Height : 400 pixels
Display aspect ratio : 16:9
Frame rate : 25.000 fps
Color space : YUV
Chroma subsampling : 4:2:0
Bit depth : 8 bits
Scan type : Progressive
Bits/(Pixel*Frame) : 0.208
Stream size : 233 MiB (78%)
Writing library : x264 core 114 r1913 5fd3dce
Encoding settings : cabac=1 / ref=16 / deblock=1:0:0 / analyse=0x3:0x133 / me=umh / subme=10 / psy=1 / psy_rd=1.00:0.00 / mixed_ref=1 / me_range=24 / chroma_me=1 / trellis=2 / 8x8dct=1 / cqm=0 / deadzone=21,11 / fast_pskip=1 / chroma_qp_offset=-2 / threads=6 / sliced_threads=0 / nr=0 / decimate=1 / interlaced=0 / constrained_intra=0 / bframes=8 / b_pyramid=2 / b_adapt=2 / b_bias=0 / direct=3 / weightb=1 / open_gop=0 / weightp=2 / keyint=250 / keyint_min=25 / scenecut=40 / intra_refresh=0 / rc_lookahead=60 / rc=2pass / mbtree=1 / bitrate=1500 / ratetol=1.0 / qcomp=0.60 / qpmin=0 / qpmax=69 / qpstep=4 / cplxblur=20.0 / qblur=0.5 / ip_ratio=1.40 / aq=1:1.00
Language : English

Audio #1
ID : 2
Format : AC-3
Format/Info : Audio Coding 3
Mode extension : CM (complete main)
Codec ID : A_AC3
Duration : 22mn 15s
Bit rate mode : Constant
Bit rate : 192 Kbps
Channel(s) : 2 channels
Channel positions : Front: L R
Sampling rate : 48.0 KHz
Bit depth : 16 bits
Compression mode : Lossy
Stream size : 30.6 MiB (10%)
Title : MVO
Language : Russian

Audio #2
ID : 3
Format : AC-3
Format/Info : Audio Coding 3
Mode extension : CM (complete main)
Codec ID : A_AC3
Duration : 22mn 15s
Bit rate mode : Constant
Bit rate : 192 Kbps
Channel(s) : 2 channels
Channel positions : Front: L R
Sampling rate : 48.0 KHz
Bit depth : 16 bits
Compression mode : Lossy
Stream size : 30.6 MiB (10%)
Language : English

Text
ID : 4
Format : UTF-8
Codec ID : S_TEXT/UTF8
Codec ID/Info : UTF-8 Plain Text
Language : Russian






   Похожие торренты   Торрент   Размер 
В этой теме нет новых непрочитанных сообщений. Кунг-Фу Панда: Секреты мастеров / Kung Fu Panda: Secrets of the Masters (2011) DVDRip

54 | 7

471.73 МБ

В этой теме нет новых непрочитанных сообщений. Кунг-фу Панда: Секреты неистовой пятерки / Kung Fu Panda: Secrets of the Furious Five (2008) DVDRip

36 | 4

232.31 МБ

В этой теме нет новых непрочитанных сообщений. Кунг-фу Панда: Секреты неистовой пятерки / Kung Fu Panda: Secrets of the Furious Five (2008) DVDRip

236 | 6

352.03 МБ

В этой теме нет новых непрочитанных сообщений. Кунг-Фу Панда: Загадки свитка / Kung Fu Panda: Secrets of the Scroll (2016) WEB-DL 1080p | D

301 | 6

948.85 МБ

В этой теме нет новых непрочитанных сообщений. Кунг-Фу Панда: Загадки свитка / Kung Fu Panda: Secrets of the Scroll (2016) WEBRip 720p | D

1957 | 93

762.05 МБ

В этой теме нет новых непрочитанных сообщений. Кунг-Фу Панда: Загадки свитка / Kung Fu Panda: Secrets of the Scroll (2016) WEBDLRip от New-Team

918 | 26

316.15 МБ

В этой теме нет новых непрочитанных сообщений. Кунг-Фу Панда: Загадки свитка / Kung Fu Panda: Secrets of the Scroll (2016) WEB-DLRip-AVC от ExKinoRay | iTunes Russia

664 | 23

545.9 МБ




Вы не можете начинать темы
Вы не можете отвечать на сообщения
Вы не можете редактировать свои сообщения
Вы не можете удалять свои сообщения
Вы не можете добавлять вложения

Перейти:  
Для Мосгорсуда, Роскомнадзора и рекламодателей: mosgorsud-torrent[собачка]yandex.ru
 Вход
ppkBB3cker v.2 © 2008-2014 @ PPK
[ Time : 0.040s | 14 Queries | GZIP : Off ]

Торрент трекер RUTOR.IN, Не можете зайти на rutor.org? Какой новый адрес рутор? Какое зеркало рутор? Не работает rutor.org и зеркала? Тогда наш торрент специально для вас. Rutor.in неофициальное зеркало rutor. В случае если у Вас заблокирован rutor или вдруг Вы не можете на него зайти, то Вы без труда сможете скачать бесплатно и без рекламы последние новинки кино, игр, сериалов и прочего у нас, на Rutor.in. Не нужно использовать прокси, чтобы зайти на рутор, достаточно воспользоваться нашим ресурсом. Все новые фильмы, игры, сериалы, книги и музыка за 2013 и 2014 годы через торрент бесплатно. Скачивайте фильмы в хорошем качестве, игры для пк, xbox, playstation без регистрации. У нас вы найдете новые Зарубежные сериалы и Русские сериалы 2013, 2014, 2015 годов. Оставайтесь с нами, качайте любимые фильмы, игры, сериалы, книги и музыку.