img image001 image001 image001 image001 image001 image001 image001 image001 image001 image001 image001 image001 image001 image001 image001

Planets Sun Sun Sun
Статистика раздачи
Автор: Снежана | Размер: 1.46 ГБ | Добавлен: 27 июл 2013
Раздают: 22    Качают: 3
Скачать торрент
Скачать торрент
Описание торрента

СообщениеДобавлено: 27 июл 2013 

#77
Год выпуска: 2004
Страна: США
Жанр: мультфильм, комедия, приключения, семейный
Продолжительность: 01:04:52

Перевод: Профессиональный (полное дублирование)
Субтитры: нет
Оригинальная дорожка: английский

Режиссер: Донован Кук / Donovan Cook

Роли дублировали: Максим Сергеев, Игорь Головин, Михаил Вассербаум, Сауле Искакова, Снежина Копрова...

Описание: Описание: Заветная мечта трех лучших друзей Микки, Дональда и Гуфи - стать мушкетерами. Их размеренная жизнь перевернулась вверх дном, когда троица оказалась вовлечена в коварный заговор капитана королевских мушкетеров Пита и лейтенанта Кларабелля, которые решили избавиться от принцессы Минни - единственного препятствия на пути Пита к королевскому трону. Возможно, Микки, Дональд и Гуфи и не выглядят героями, но они припасли пару сюрпризов для капитана Пита. Дружба и сплоченность - вот их главный козырь! Скоро друзья понимают, что им все по плечу, когда они вместе. Один за всех и все за одного!
Впервые Микки, Дональд, Гуфи и их неразлучные друзья Мини, Дейзи и Плуто появляются на экране все вместе в этом полнометражном мультфильме, где есть захватывающий сюжет, искристый юмор, а так же шесть замечательных песен!





Исходник: DVD9 R5
Качество: DVDRip
Формат: AVI

Видео: 720x400 (16:9), 25 fps, XviD MPEG-4 ~ 2374 kbps avg, 0.330 bit/pixel
Аудио 1: Русский: 48 kHz, Dolby AC3, 6 ch, 384.00 kbps Constant
Аудио 2: Английский: 48 kHz, Dolby AC3, 6 ch, 448.00 kbps Constant

Раздача от:
Общее
Полное имя : E:Tracker2012Три мушкетера. Микки, Дональд, ГуфиTri.mushketera.Mikki,Donal'd,Gufi.2004.D.DVDRip_[Youtracker]_by_AVP Studio.avi
Формат : AVI
Формат/Информация : Audio Video Interleave
Размер файла : 1,46 Гбайт
Продолжительность : 1 ч. 4 м.
Общий поток : 3220 Кбит/сек
Программа кодирования : VirtualDubModRus 1.5.10.2 (build 2542/release)
Библиотека кодирования : VirtualDubMod build 2542/release

Видео
Идентификатор : 0
Формат : MPEG-4 Visual
Профиль формата : Advanced Simple@L5
Параметр BVOP формата : 1
Параметр QPel формата : Нет
Параметр GMC формата : Без точки перехода
Параметр матрицы формата : Выборочная
Идентификатор кодека : XVID
Идентификатор кодека/Подсказка : XviD
Продолжительность : 1 ч. 4 м.
Битрейт : 2374 Кбит/сек
Ширина : 720 пикселей
Высота : 400 пикселей
Соотношение сторон : 16:9
Частота кадров : 25,000 кадров/сек
Цветовое пространство : YUV
Субдискретизация насыщенности : 4:2:0
Битовая глубина : 8 бит
Тип развёртки : Прогрессивная
Метод сжатия : С потерями
Бит/(Пиксели*Кадры) : 0.330
Размер потока : 1,08 Гбайт (74%)
Библиотека кодирования : XviD 65

Аудио #1
Идентификатор : 1
Формат : AC-3
Формат/Информация : Audio Coding 3
Расширение режима : CM (complete main)
Идентификатор кодека : 2000
Продолжительность : 1 ч. 4 м.
Вид битрейта : Постоянный
Битрейт : 384 Кбит/сек
Каналы : 6 каналов
Расположение каналов : Front: L C R, Side: L R, LFE
Частота : 48,0 КГц
Битовая глубина : 16 бит
Метод сжатия : С потерями
Размер потока : 178 Мбайт (12%)
Выравнивание : Разделение по промежуткам
Продолжительность промежутка : 40 мс. (1,00 видеокадр)
Время предзагрузки промежутка : 500 мс.

Аудио #2
Идентификатор : 2
Формат : AC-3
Формат/Информация : Audio Coding 3
Расширение режима : CM (complete main)
Идентификатор кодека : 2000
Продолжительность : 1 ч. 4 м.
Вид битрейта : Постоянный
Битрейт : 448 Кбит/сек
Каналы : 6 каналов
Расположение каналов : Front: L C R, Side: L R, LFE
Частота : 48,0 КГц
Битовая глубина : 16 бит
Метод сжатия : С потерями
Размер потока : 208 Мбайт (14%)
Выравнивание : Разделение по промежуткам
Продолжительность промежутка : 40 мс. (1,00 видеокадр)
Время предзагрузки промежутка : 500 мс





   Похожие торренты   Торрент   Размер 
В этой теме нет новых непрочитанных сообщений. Три мушкетера. Микки, Дональд, Гуфи / Mickey, Donald, Goofy: The Three Musketeers (2004) DVDRip-AVC от Youtracker | D

7 | 6

1.46 ГБ

В этой теме нет новых непрочитанных сообщений. Три мушкетера. Микки, Дональд, Гуфи / Mickey, Donald, Goofy: The Three Musketeers (2004) DVD9 от Youtracker | D

0 | 6

6.06 ГБ

В этой теме нет новых непрочитанных сообщений. Три мушкетера. Микки, Дональд, Гуфи / Mickey, Donald, Goofy: The Three Musketeers (2004) BDRip от Deadmauvlad | D

416 | 56

1.41 ГБ

В этой теме нет новых непрочитанных сообщений. Три мушкетера. Микки, Дональд, Гуфи / Mickey, Donald, Goofy: The Three Musketeers (2004) HDRip от Kaztorrents | D

29 | 3

746.24 МБ

В этой теме нет новых непрочитанных сообщений. Три мушкетера. Микки, Дональд, Гуфи / Mickey, Donald, Goofy: The Three Musketeers (2004) BDRip 720p от Deadmauvlad | D

458 | 22

3.45 ГБ

В этой теме нет новых непрочитанных сообщений. Клуб Микки Мауса: Удивительные Истории / Mickey Mouse Clubhouse: Mickey's Storybook Surprises (2006) DVD5 от Youtracker | D | Сжатый

4 | 3

4.21 ГБ

В этой теме нет новых непрочитанных сообщений. Клуб Микки Мауса: Удивительные Истории / Mickey Mouse Clubhouse: Mickey's Storybook Surprises (2006) DVD9 от Youtracker | D | Лицензия

49 | 4

5.46 ГБ




Вы не можете начинать темы
Вы не можете отвечать на сообщения
Вы не можете редактировать свои сообщения
Вы не можете удалять свои сообщения
Вы не можете добавлять вложения

Перейти:  
Для Мосгорсуда, Роскомнадзора и рекламодателей: mosgorsud-torrent[собачка]yandex.ru
 Вход
ppkBB3cker v.2 © 2008-2014 @ PPK
[ Time : 0.053s | 14 Queries | GZIP : Off ]

Торрент трекер RUTOR.IN, Не можете зайти на rutor.org? Какой новый адрес рутор? Какое зеркало рутор? Не работает rutor.org и зеркала? Тогда наш торрент специально для вас. Rutor.in неофициальное зеркало rutor. В случае если у Вас заблокирован rutor или вдруг Вы не можете на него зайти, то Вы без труда сможете скачать бесплатно и без рекламы последние новинки кино, игр, сериалов и прочего у нас, на Rutor.in. Не нужно использовать прокси, чтобы зайти на рутор, достаточно воспользоваться нашим ресурсом. Все новые фильмы, игры, сериалы, книги и музыка за 2013 и 2014 годы через торрент бесплатно. Скачивайте фильмы в хорошем качестве, игры для пк, xbox, playstation без регистрации. У нас вы найдете новые Зарубежные сериалы и Русские сериалы 2013, 2014, 2015 годов. Оставайтесь с нами, качайте любимые фильмы, игры, сериалы, книги и музыку.