img image001 image001 image001 image001 image001 image001 image001 image001 image001 image001 image001 image001 image001 image001 image001

Planets Sun Sun Sun
Статистика раздачи
Автор: Снежана | Размер: 2.96 ГБ | Добавлен: 27 июл 2013
Раздают: 19    Качают: 4
Скачать торрент
Скачать торрент
Описание торрента

СообщениеДобавлено: 27 июл 2013 

#77

Информация о фильме
Название: Замбезия
Оригинальное название: Zambezia
Год выхода: 2012
Жанр: мультфильм, приключения, семейный
Режиссер: Уэйн Тонли
Роли озвучивали: Эбигейл Бреслин, Кори Бертон, Джим Каммингс, Норин ДеВулф, Ли Дуру, Джефф Голдблюм, Ричард Э. Грант, Таня Гунади, Сэмюэл Л. Джексон, Джереми Суарес, Леонард Нимой и др.

О фильме:
В мультфильме рассказывается история жизни юного соколёнка по имени Кай, его приключения, характер, комичные ситуации в которые он попадает на пути к своей главной цели, на пути к заветному птичьему городку Замбезия, в котором он от всей души желает отыскать новых друзей, которые бы скрасили его одиночество и не оставили в беде. Однако для начала ему необходимо преодолеть путь, который полон опасностей и неожиданных поворотов...
Страна: ЮАР
Продолжительность: 01:22:26
Перевод: Профессиональный (полное дублирование) [Лицензия]

Файл
Качество: BDRip 720p
Видео: 1280x692 (1.85:1), 23.976 fps, AVC, ~3854 Kbps, 0.181 bits/pixel
Аудио #1: (Dolby AC3, 6 ch) 640 Кбит/сек, 48,0 КГц | Russian |
Аудио #2: (Dolby AC3, 6 ch) 640 Кбит/сек, 48,0 КГц | English |

Субтитры: русские

Семпл

General
Unique ID : 184622419637226080616041691148683819151 (0x8AE4FC11440ECB788038F9898033B88F)
Complete name : Zambezia.2012.BDRip.720p.tRuAVC.&.Multfilmy.mkv
Format : Matroska
Format version : Version 2
File size : 2.96 GiB
Duration : 1h 22mn
Overall bit rate : 5 136 Kbps
Encoded date : UTC 2012-10-05 14:25:13
Writing application : mkvmerge v4.0.0 ('The Stars were mine') built on Jun 6 2010 16:18:42
Writing library : libebml v1.0.0 + libmatroska v1.0.0

Video
ID : 1
Format : AVC
Format/Info : Advanced Video Codec
Format profile : High@L4.1
Format settings, CABAC : Yes
Format settings, ReFrames : 9 frames
Codec ID : V_MPEG4/ISO/AVC
Duration : 1h 22mn
Bit rate : 3 854 Kbps
Width : 1 280 pixels
Height : 692 pixels
Display aspect ratio : 1.850
Frame rate : 23.976 fps
Color space : YUV
Chroma subsampling : 4:2:0
Bit depth : 8 bits
Scan type : Progressive
Bits/(Pixel*Frame) : 0.181
Stream size : 2.21 GiB (73%)
Title : NTSC, 1280x692 (1.85:1), BDRip 720p - tRuAVC & Multfilmy [DFCbit]
Writing library : x264 core 128 r2216kMod 198a7ea
Encoding settings : cabac=1 / ref=9 / deblock=1:-2:-1 / analyse=0x3:0x133 / me=umh / subme=11 / psy=1 / fade_compensate=0.00 / psy_rd=0.60:0.00 / mixed_ref=1 / me_range=32 / chroma_me=1 / trellis=2 / 8x8dct=1 / cqm=0 / deadzone=21,11 / fast_pskip=0 / chroma_qp_offset=-2 / threads=6 / lookahead_threads=1 / sliced_threads=0 / nr=0 / decimate=1 / interlaced=0 / bluray_compat=0 / constrained_intra=0 / bframes=10 / b_pyramid=2 / b_adapt=2 / b_bias=0 / direct=1 / weightb=1 / open_gop=0 / weightp=2 / keyint=250 / keyint_min=23 / scenecut=40 / intra_refresh=0 / rc_lookahead=70 / rc=crf / mbtree=0 / crf=16.5600 / qcomp=0.80 / qpmin=0 / qpmax=69 / qpstep=4 / vbv_maxrate=50000 / vbv_bufsize=62500 / crf_max=0.0 / nal_hrd=none / ip_ratio=1.40 / pb_ratio=1.30 / aq=2:0.90
Default : Yes
Forced : No
Color primaries : BT.709-5, BT.1361, IEC 61966-2-4, SMPTE RP177
Transfer characteristics : BT.709-5, BT.1361
Matrix coefficients : BT.709-5, BT.1361, IEC 61966-2-4 709, SMPTE RP177

Audio #1
ID : 2
Format : AC-3
Format/Info : Audio Coding 3
Mode extension : CM (complete main)
Codec ID : A_AC3
Duration : 1h 22mn
Bit rate mode : Constant
Bit rate : 640 Kbps
Channel(s) : 6 channels
Channel positions : Front: L C R, Side: L R, LFE
Sampling rate : 48.0 KHz
Bit depth : 16 bits
Compression mode : Lossy
Stream size : 377 MiB (12%)
Title : AC3, 6 ch, 48 kHz, 640 kbps, Dubbing
Language : Russian
Default : Yes
Forced : No

Audio #2
ID : 3
Format : AC-3
Format/Info : Audio Coding 3
Mode extension : CM (complete main)
Codec ID : A_AC3
Duration : 1h 22mn
Bit rate mode : Constant
Bit rate : 640 Kbps
Channel(s) : 6 channels
Channel positions : Front: L C R, Side: L R, LFE
Sampling rate : 48.0 KHz
Bit depth : 16 bits
Compression mode : Lossy
Stream size : 377 MiB (12%)
Title : AC3, 6 ch, 48 kHz, 640 kbps, Original
Language : English
Default : No
Forced : No

Text
ID : 4
Format : UTF-8
Codec ID : S_TEXT/UTF8
Codec ID/Info : UTF-8 Plain Text
Title : SRT, Full
Language : Russian
Default : No
Forced : No

Menu
00:00:00.000 : en:Chapter 1
00:04:46.495 : en:Chapter 2
00:08:27.257 : en:Chapter 3
00:12:58.486 : en:Chapter 4
00:18:24.562 : en:Chapter 5
00:25:37.536 : en:Chapter 6
00:30:46.762 : en:Chapter 7
00:38:11.247 : en:Chapter 8
00:43:55.383 : en:Chapter 9
00:46:52.393 : en:Chapter 10
00:50:51.757 : en:Chapter 11
00:55:05.385 : en:Chapter 12
01:00:01.431 : en:Chapter 13
01:06:04.836 : en:Chapter 14
01:12:11.410 : en:Chapter 15
01:16:37.218 : en:Chapter 16




Релиз от: DFCbit



   Похожие торренты   Торрент   Размер 
В этой теме нет новых непрочитанных сообщений. Замбезия / Zambezia (2012) BDRip 720p от Leonardo and Scarabey | Лицензия | US Transfer

102 | 31

2.32 ГБ

В этой теме нет новых непрочитанных сообщений. Замбезия / Zambezia (2012) BDRip от HELLYWOOD

63 | 6

1.68 ГБ

В этой теме нет новых непрочитанных сообщений. Замбезия / Zambezia (2012) BDRip 1080p

62 | 5

4.37 ГБ

В этой теме нет новых непрочитанных сообщений. Замбезия / Zambezia (2012) BDRip-AVC | iPad

44 | 1

1.5 ГБ

В этой теме нет новых непрочитанных сообщений. Замбезия / Zambezia (2012) BDRip 1080p | 3D-Video | D

37 | 3

5.8 ГБ

В этой теме нет новых непрочитанных сообщений. Замбезия / Zambezia (2012) BDRip 1080p от FfCLub

0 | 4

5.59 ГБ

В этой теме нет новых непрочитанных сообщений. Замбезия / Zambezia (2012) BDRip от HQCLUB | Лицензия

189 | 20

1.45 ГБ




Вы не можете начинать темы
Вы не можете отвечать на сообщения
Вы не можете редактировать свои сообщения
Вы не можете удалять свои сообщения
Вы не можете добавлять вложения

Перейти:  
Для Мосгорсуда, Роскомнадзора и рекламодателей: mosgorsud-torrent[собачка]yandex.ru
 Вход
ppkBB3cker v.2 © 2008-2014 @ PPK
[ Time : 0.039s | 15 Queries | GZIP : Off ]

cron