img image001 image001 image001 image001 image001 image001 image001 image001 image001 image001 image001 image001 image001 image001 image001

Planets Sun Sun Sun
Статистика раздачи
Автор: Снежана | Размер: 1.46 ГБ | Добавлен: 27 июл 2013
Раздают: 7    Качают: 6
Скачать торрент
Скачать торрент
Описание торрента

СообщениеДобавлено: 27 июл 2013 

#77
Год выпуска: 2004
Страна: США
Жанр: мультфильм, комедия, приключения, семейный
Продолжительность: 01:04:52

Перевод: Профессиональный (полное дублирование)
Субтитры: нет
Оригинальная дорожка: английский

Режиссер: Донован Кук / Donovan Cook

Роли дублировали: Максим Сергеев, Игорь Головин, Михаил Вассербаум, Сауле Искакова, Снежина Копрова...

Описание: Описание: Заветная мечта трех лучших друзей Микки, Дональда и Гуфи - стать мушкетерами. Их размеренная жизнь перевернулась вверх дном, когда троица оказалась вовлечена в коварный заговор капитана королевских мушкетеров Пита и лейтенанта Кларабелля, которые решили избавиться от принцессы Минни - единственного препятствия на пути Пита к королевскому трону. Возможно, Микки, Дональд и Гуфи и не выглядят героями, но они припасли пару сюрпризов для капитана Пита. Дружба и сплоченность - вот их главный козырь! Скоро друзья понимают, что им все по плечу, когда они вместе. Один за всех и все за одного!
Впервые Микки, Дональд, Гуфи и их неразлучные друзья Мини, Дейзи и Плуто появляются на экране все вместе в этом полнометражном мультфильме, где есть захватывающий сюжет, искристый юмор, а так же шесть замечательных песен!





Исходник: DVD9 R5
Качество: DVDRip-AVC
Формат: MKV

Видео: 720x572@1024x572 (16:9), 25 fps, H264 ~ 1996 kbps avg, 0.194 bit/pixel
Аудио 1: Русский: 48 kHz, Dolby AC3, 6 ch, 384.00 kbps Constant
Аудио 2: Английский: 48 kHz, Dolby AC3, 6 ch, 448.00 kbps Constant
Аудио 3: Польский: 48 kHz, Dolby AC3, 6 ch, 384.00 kbps Constant

Раздача от:
Общее
Полное имя : Tri.mushketera.Mikki,Donal'd,Gufi.2004.D.DVDRip-AVC_[Youtracker]_by_AVP Studio.mkv
Формат : Matroska
Версия формата : Version 2
Размер файла : 1,46 Гбайт
Продолжительность : 1 ч. 4 м.
Общий поток : 3214 Кбит/сек
Название фильма : Tri.mushketera.Mikki,Donal'd,Gufi.2004.D.DVDRip-AVC_[Youtracker]_by_AVP Studio
Дата кодирования : UTC 2012-10-06 20:48:50
Программа кодирования : mkvmerge v5.8.0 ('No Sleep / Pillow') built on Sep 2 2012 15:37:04
Библиотека кодирования : libebml v1.2.3 + libmatroska v1.3.0

Видео
Идентификатор : 1
Формат : AVC
Формат/Информация : Advanced Video Codec
Профиль формата : High@L4.1
Параметр CABAC формата : Да
Параметр ReFrames формата : 11 кадров
Идентификатор кодека : V_MPEG4/ISO/AVC
Продолжительность : 1 ч. 4 м.
Битрейт : 1996 Кбит/сек
Ширина : 720 пикселей
Высота : 572 пикселя
Соотношение сторон : 16:9
Частота кадров : 25,000 кадров/сек
Цветовое пространство : YUV
Субдискретизация насыщенности : 4:2:0
Битовая глубина : 8 бит
Тип развёртки : Прогрессивная
Бит/(Пиксели*Кадры) : 0.194
Размер потока : 897 Мбайт (60%)
Заголовок : Источник DVD
Библиотека кодирования : x264 core 119 r2106 07efeb4
Настройки программы : cabac=1 / ref=11 / deblock=1:-2:-1 / analyse=0x3:0x113 / me=umh / subme=9 / psy=1 / psy_rd=1.00:0.20 / mixed_ref=1 / me_range=32 / chroma_me=1 / trellis=1 / 8x8dct=1 / cqm=0 / deadzone=21,11 / fast_pskip=0 / chroma_qp_offset=-3 / threads=3 / sliced_threads=0 / nr=0 / decimate=0 / interlaced=0 / bluray_compat=0 / constrained_intra=0 / bframes=8 / b_pyramid=2 / b_adapt=2 / b_bias=0 / direct=3 / weightb=1 / open_gop=0 / weightp=2 / keyint=250 / keyint_min=25 / scenecut=40 / intra_refresh=0 / rc_lookahead=60 / rc=2pass / mbtree=1 / bitrate=1996 / ratetol=1.0 / qcomp=0.60 / qpmin=0 / qpmax=69 / qpstep=4 / cplxblur=20.0 / qblur=0.5 / ip_ratio=1.40 / aq=1:1.00
Язык : English
Default : Да
Forced : Нет

Аудио #1
Идентификатор : 2
Формат : AC-3
Формат/Информация : Audio Coding 3
Расширение режима : CM (complete main)
Идентификатор кодека : A_AC3
Продолжительность : 1 ч. 4 м.
Вид битрейта : Постоянный
Битрейт : 384 Кбит/сек
Каналы : 6 каналов
Расположение каналов : Front: L C R, Side: L R, LFE
Частота : 48,0 КГц
Битовая глубина : 16 бит
Метод сжатия : С потерями
Размер потока : 178 Мбайт (12%)
Заголовок : Источник DVD
Язык : Russian
Default : Да
Forced : Нет

Аудио #2
Идентификатор : 3
Формат : AC-3
Формат/Информация : Audio Coding 3
Расширение режима : CM (complete main)
Идентификатор кодека : A_AC3
Продолжительность : 1 ч. 4 м.
Вид битрейта : Постоянный
Битрейт : 448 Кбит/сек
Каналы : 6 каналов
Расположение каналов : Front: L C R, Side: L R, LFE
Частота : 48,0 КГц
Битовая глубина : 16 бит
Метод сжатия : С потерями
Размер потока : 208 Мбайт (14%)
Заголовок : Источник DVD
Язык : English
Default : Нет
Forced : Нет

Аудио #3
Идентификатор : 4
Формат : AC-3
Формат/Информация : Audio Coding 3
Расширение режима : CM (complete main)
Идентификатор кодека : A_AC3
Продолжительность : 1 ч. 4 м.
Вид битрейта : Постоянный
Битрейт : 384 Кбит/сек
Каналы : 6 каналов
Расположение каналов : Front: L C R, Side: L R, LFE
Частота : 48,0 КГц
Битовая глубина : 16 бит
Метод сжатия : С потерями
Размер потока : 178 Мбайт (12%)
Заголовок : Источник DVD
Язык : Polish
Default : Нет
Forced : Нет

Меню
00:00:00.000 : ru:00:00:00.000000000
00:05:00.000 : :00:05:00.000000000
00:10:00.000 : :00:10:00.000000000
00:15:00.000 : :00:15:00.000000000
00:20:00.000 : :00:20:00.000000000
00:25:00.000 : :00:25:00.000000000
00:30:00.000 : :00:30:00.000000000
00:35:00.000 : :00:35:00.000000000
00:40:00.000 : :00:40:00.000000000
00:45:00.000 : :00:45:00.000000000
00:50:00.000 : :00:50:00.000000000
00:55:00.000 : :00:55:00.000000000
01:00:00.000 : :01:00:00.000000000





   Похожие торренты   Торрент   Размер 
В этой теме нет новых непрочитанных сообщений. Три мушкетера. Микки, Дональд, Гуфи / Mickey, Donald, Goofy: The Three Musketeers (2004) DVDRip от Youtracker | D

22 | 3

1.46 ГБ

В этой теме нет новых непрочитанных сообщений. Три мушкетера. Микки, Дональд, Гуфи / Mickey, Donald, Goofy: The Three Musketeers (2004) DVD9 от Youtracker | D

0 | 6

6.06 ГБ

В этой теме нет новых непрочитанных сообщений. Три мушкетера. Микки, Дональд, Гуфи / Mickey, Donald, Goofy: The Three Musketeers (2004) HDRip от Kaztorrents | D

32 | 1

746.24 МБ

В этой теме нет новых непрочитанных сообщений. Три мушкетера. Микки, Дональд, Гуфи / Mickey, Donald, Goofy: The Three Musketeers (2004) BDRip от Deadmauvlad | D

416 | 56

1.41 ГБ

В этой теме нет новых непрочитанных сообщений. Три мушкетера. Микки, Дональд, Гуфи / Mickey, Donald, Goofy: The Three Musketeers (2004) BDRip 720p от Deadmauvlad | D

458 | 22

3.45 ГБ

В этой теме нет новых непрочитанных сообщений. Клуб Микки Мауса: Удивительные Истории / Mickey Mouse Clubhouse: Mickey's Storybook Surprises (2006) DVD9 от Youtracker | D | Лицензия

49 | 4

5.46 ГБ

В этой теме нет новых непрочитанных сообщений. Клуб Микки Мауса: Удивительные Истории / Mickey Mouse Clubhouse: Mickey's Storybook Surprises (2006) DVD5 от Youtracker | D | Сжатый

4 | 3

4.21 ГБ




Вы не можете начинать темы
Вы не можете отвечать на сообщения
Вы не можете редактировать свои сообщения
Вы не можете удалять свои сообщения
Вы не можете добавлять вложения

Перейти:  
Для Мосгорсуда, Роскомнадзора и рекламодателей: mosgorsud-torrent[собачка]yandex.ru
 Вход
ppkBB3cker v.2 © 2008-2014 @ PPK
[ Time : 0.028s | 14 Queries | GZIP : Off ]

Торрент трекер RUTOR.IN, Не можете зайти на rutor.org? Какой новый адрес рутор? Какое зеркало рутор? Не работает rutor.org и зеркала? Тогда наш торрент специально для вас. Rutor.in неофициальное зеркало rutor. В случае если у Вас заблокирован rutor или вдруг Вы не можете на него зайти, то Вы без труда сможете скачать бесплатно и без рекламы последние новинки кино, игр, сериалов и прочего у нас, на Rutor.in. Не нужно использовать прокси, чтобы зайти на рутор, достаточно воспользоваться нашим ресурсом. Все новые фильмы, игры, сериалы, книги и музыка за 2013 и 2014 годы через торрент бесплатно. Скачивайте фильмы в хорошем качестве, игры для пк, xbox, playstation без регистрации. У нас вы найдете новые Зарубежные сериалы и Русские сериалы 2013, 2014, 2015 годов. Оставайтесь с нами, качайте любимые фильмы, игры, сериалы, книги и музыку.