img image001 image001 image001 image001 image001 image001 image001 image001 image001 image001 image001 image001 image001 image001 image001

Planets Sun Sun Sun
Статистика раздачи
Автор: Снежана | Размер: 744.82 МБ | Добавлен: 27 июл 2013
Раздают: 257    Качают: 13
Скачать торрент
Скачать торрент
Описание торрента

СообщениеДобавлено: 27 июл 2013 

#77
Год выпуска: 1957
Страна: CCCР
Студия: Союзмультфильм

Жанр: мультфильм, фэнтези, драма, семейный
Продолжительность: 01:00:40

Режиссер: Лев Атаманов

Роли озвучивали: Владимир Грибков (Оле-Лукойе) , Ирина Мурзаева (Старая фея) , Елена Понсова (Ворона) , Т. Линник (Принцесса) , Анна Комолова (Кай) , Галина Кожакина (Маленькая разбойница) , Мария Бабанова (Снежная королева) , М. Синельникова (Финка) , Сергей Мартинсон (Ворон) , Вера Бендина (Принц) , Янина Жеймо (Герда) , Юдифь Глизер (Старая разбойница и Лапландка) , В. Попова (Бабушка) , Алексей Консовский (Олень)
текст читает М. Светлова

Описание: В один из морозных зимних вечеров, когда сквозь расписанные причудливым узором окна уютных, теплых ломов прокрадывается темнота, а во дворе тревожно завывает вьюга, Снежная королева умчала маленького Кая в свои ледяные владения и превратила его доброе отзывчивое сердце в осколок льдинки. Через множество испытаний пришлось пройти верной Герде, чтобы добраться до чертогов Снежной королевы и спасти мальчика, освободить его из ледового плена, где царят душевный холод и безразличие.






Качество: DVDRip
Формат: AVI

Видео: 688x528 (4:3), 25 fps, XviD ~ 1515 kbps avg, 0.167 bit/pixel
Аудио: 48 kHz, AC3, 2 ch, 192.00 kbps

Раздача от:
Общее
Полное имя : Snezhnaja.koroleva.1957.DVDRip_[Youtracker]_by_AVP Studio.avi
Формат : AVI
Формат/Информация : Audio Video Interleave
Размер файла : 745 Мбайт
Продолжительность : 1 ч. 0 м.
Общий поток : 1716 Кбит/сек
Программа кодирования : VirtualDubMod 1.5.10.3 | www.virtualdub-fr.org || (build 2550/release)
Библиотека кодирования : VirtualDubMod build 2550/release

Видео
Идентификатор : 0
Формат : MPEG-4 Visual
Профиль формата : Advanced Simple@L5
Параметр BVOP формата : 1
Параметр QPel формата : Нет
Параметр GMC формата : Без точки перехода
Параметр матрицы формата : Выборочная
Идентификатор кодека : XVID
Идентификатор кодека/Подсказка : XviD
Продолжительность : 1 ч. 0 м.
Битрейт : 1515 Кбит/сек
Ширина : 688 пикселей
Высота : 528 пикселей
Соотношение сторон : 4:3
Частота кадров : 25,000 кадров/сек
Цветовое пространство : YUV
Субдискретизация насыщенности : 4:2:0
Битовая глубина : 8 бит
Тип развёртки : Прогрессивная
Метод сжатия : С потерями
Бит/(Пиксели*Кадры) : 0.167
Размер потока : 657 Мбайт (88%)
Библиотека кодирования : XviD 65

Аудио
Идентификатор : 1
Формат : AC-3
Формат/Информация : Audio Coding 3
Расширение режима : CM (complete main)
Идентификатор кодека : 2000
Продолжительность : 1 ч. 0 м.
Вид битрейта : Постоянный
Битрейт : 192 Кбит/сек
Каналы : 2 канала
Расположение каналов : Front: L R
Частота : 48,0 КГц
Битовая глубина : 16 бит
Метод сжатия : С потерями
Размер потока : 83,3 Мбайт (11%)
Выравнивание : Разделение по промежуткам
Продолжительность промежутка : 40 мс. (1,00 видеокадр)
Время предзагрузки промежутка : 500 мс





   Похожие торренты   Торрент   Размер 
В этой теме нет новых непрочитанных сообщений. Снежная королева (1957) DVDRip-AVC от Youtracker

40 | 5

743.86 МБ

В этой теме нет новых непрочитанных сообщений. Снежная королева (1957) DVDRip | Реставрация

883 | 35

1.18 ГБ

В этой теме нет новых непрочитанных сообщений. Снежная королева (1957) DVDRip от Torrent-Xzona | КПК

59 | 8

299.37 МБ

В этой теме нет новых непрочитанных сообщений. Снежная королева (1957-1966) DVD5

13 | 4

4.33 ГБ

В этой теме нет новых непрочитанных сообщений. Снежная королева (1966) DVDRip от Youtracker

28 | 7

744.95 МБ

В этой теме нет новых непрочитанных сообщений. Снежная королева (1966) DVDRip-AVC от Youtracker

27 | 7

744.67 МБ

В этой теме нет новых непрочитанных сообщений. Снежная королева (2012) BDRip от Youtracker

39 | 5

744.61 МБ




Вы не можете начинать темы
Вы не можете отвечать на сообщения
Вы не можете редактировать свои сообщения
Вы не можете удалять свои сообщения
Вы не можете добавлять вложения

Перейти:  
Для Мосгорсуда, Роскомнадзора и рекламодателей: mosgorsud-torrent[собачка]yandex.ru
 Вход
ppkBB3cker v.2 © 2008-2014 @ PPK
[ Time : 1.008s | 13 Queries | GZIP : Off ]
CGP output time : 0.045s | 5 Queries | GZIP : Off

Торрент трекер RUTOR.IN, Не можете зайти на rutor.org? Какой новый адрес рутор? Какое зеркало рутор? Не работает rutor.org и зеркала? Тогда наш торрент специально для вас. Rutor.in неофициальное зеркало rutor. В случае если у Вас заблокирован rutor или вдруг Вы не можете на него зайти, то Вы без труда сможете скачать бесплатно и без рекламы последние новинки кино, игр, сериалов и прочего у нас, на Rutor.in. Не нужно использовать прокси, чтобы зайти на рутор, достаточно воспользоваться нашим ресурсом. Все новые фильмы, игры, сериалы, книги и музыка за 2013 и 2014 годы через торрент бесплатно. Скачивайте фильмы в хорошем качестве, игры для пк, xbox, playstation без регистрации. У нас вы найдете новые Зарубежные сериалы и Русские сериалы 2013, 2014, 2015 годов. Оставайтесь с нами, качайте любимые фильмы, игры, сериалы, книги и музыку.