img image001 image001 image001 image001 image001 image001 image001 image001 image001 image001 image001 image001 image001 image001 image001

Planets Sun Sun Sun
Статистика раздачи
Автор: Снежана | Размер: 744.96 МБ | Добавлен: 27 июл 2013
Раздают: 37    Качают: 2
Скачать торрент
Скачать торрент
Описание торрента

СообщениеДобавлено: 27 июл 2013 

#77
Год выпуска: 1990
Страна: CША
Студия: Filmation Associates, Kel Air Productions

Перевод: Профессиональный (многоголосый закадровый)
Жанр: мультфильм, мюзикл, фэнтези, семейный
Продолжительность: 01:11:02

Режиссер: Джон Хаули / John Howley

Роли озвучивали: Эдвард Эснер, Айрин Кэра, Кэрол Чэннинг, Дом ДеЛуиз, Филлис Диллер, Жа Жа Габор, Линда Гэри, Джонатан Харрис, Майкл Хортон, Сэлли Келлермен...

Описание: Белоснежка собирается замуж за принца, но влюбленную пару похищает дракон. Счастливо выпав (в буквальном смысле слова) из его когтей она попадает на сей раз не к семи гномам, а к их кузинам…





Качество: DVDRip
Формат: AVI
Видео: 704x528 (4:3), 25 fps, XviD ~ 1328 kbps avg, 0.143 bit/pixel
Аудио: 48 kHz, MP3, 2 ch, 128.00 kbps

Раздача от:
Общее
Полное имя : Novye.prikljuchenija.Belosnezhki.1990.DVDRip_[Youtracker]_by_AVP Studio.avi
Формат : AVI
Формат/Информация : Audio Video Interleave
Размер файла : 745 Мбайт
Продолжительность : 1 ч. 11 м.
Общий поток : 1466 Кбит/сек
Программа кодирования : VirtualDubMod 1.5.10.3 | www.virtualdub-fr.org || (build 2550/release)
Библиотека кодирования : VirtualDubMod build 2550/release

Видео
Идентификатор : 0
Формат : MPEG-4 Visual
Профиль формата : Advanced Simple@L5
Параметр BVOP формата : 1
Параметр QPel формата : Нет
Параметр GMC формата : Без точки перехода
Параметр матрицы формата : Выборочная
Идентификатор кодека : XVID
Идентификатор кодека/Подсказка : XviD
Продолжительность : 1 ч. 11 м.
Битрейт : 1328 Кбит/сек
Ширина : 704 пикселя
Высота : 528 пикселей
Соотношение сторон : 4:3
Частота кадров : 25,000 кадров/сек
Цветовое пространство : YUV
Субдискретизация насыщенности : 4:2:0
Битовая глубина : 8 бит
Тип развёртки : Прогрессивная
Метод сжатия : С потерями
Бит/(Пиксели*Кадры) : 0.143
Размер потока : 675 Мбайт (91%)
Библиотека кодирования : XviD 65

Аудио
Идентификатор : 1
Формат : MPEG Audio
Версия формата : Version 1
Профиль формата : Layer 3
Идентификатор кодека : 55
Идентификатор кодека/Подсказка : MP3
Продолжительность : 1 ч. 11 м.
Вид битрейта : Постоянный
Битрейт : 128 Кбит/сек
Каналы : 2 канала
Частота : 48,0 КГц
Метод сжатия : С потерями
Размер потока : 65,0 Мбайт (9%)
Выравнивание : Соединение по промежуткам
Продолжительность промежутка : 40 мс. (1,00 видеокадр)
Время предзагрузки промежутка : 504 мс.
Библиотека кодирования : L3.99r
Настройки программы : -m s -V 4 -q 2 -lowpass 17 -b 128





   Похожие торренты   Торрент   Размер 
В этой теме нет новых непрочитанных сообщений. Новые приключения Белоснежки / Happily Ever After (1990) DVDRip-AVC от Youtracker | P

4 | 2

744.3 МБ

В этой теме нет новых непрочитанных сообщений. Новые приключения Белоснежки / Happily Ever After (1990) DVD5 от Youtracker | P

0 | 1

3.98 ГБ

В этой теме нет новых непрочитанных сообщений. Новая история Белоснежки / Happily N`Ever After 2 (2009) DVDRip

16 | 4

1.36 ГБ

В этой теме нет новых непрочитанных сообщений. Новые приключения Золушки / Happily N'Ever After (2007) BDRip от HQ-ViDEO

49 | 6

1.46 ГБ

В этой теме нет новых непрочитанных сообщений. Новые приключения Золушки / Happily N'Ever After (2006) HDRip-AVC от ExKinoRay

399 | 24

1.72 ГБ

В этой теме нет новых непрочитанных сообщений. Новые приключения Золушки / Happily N'Ever After (2006) HDTV 720p от PskovLine

4 | 3

4.61 ГБ

В этой теме нет новых непрочитанных сообщений. Новые приключения Пса и его друзей / Рок кукареку / Rock-A-Doodle (1990) DVDRip от Sheikn

150 | 13

1.54 ГБ




Вы не можете начинать темы
Вы не можете отвечать на сообщения
Вы не можете редактировать свои сообщения
Вы не можете удалять свои сообщения
Вы не можете добавлять вложения

Перейти:  
Для Мосгорсуда, Роскомнадзора и рекламодателей: mosgorsud-torrent[собачка]yandex.ru
 Вход
ppkBB3cker v.2 © 2008-2014 @ PPK
[ Time : 0.033s | 14 Queries | GZIP : Off ]

Торрент трекер RUTOR.IN, Не можете зайти на rutor.org? Какой новый адрес рутор? Какое зеркало рутор? Не работает rutor.org и зеркала? Тогда наш торрент специально для вас. Rutor.in неофициальное зеркало rutor. В случае если у Вас заблокирован rutor или вдруг Вы не можете на него зайти, то Вы без труда сможете скачать бесплатно и без рекламы последние новинки кино, игр, сериалов и прочего у нас, на Rutor.in. Не нужно использовать прокси, чтобы зайти на рутор, достаточно воспользоваться нашим ресурсом. Все новые фильмы, игры, сериалы, книги и музыка за 2013 и 2014 годы через торрент бесплатно. Скачивайте фильмы в хорошем качестве, игры для пк, xbox, playstation без регистрации. У нас вы найдете новые Зарубежные сериалы и Русские сериалы 2013, 2014, 2015 годов. Оставайтесь с нами, качайте любимые фильмы, игры, сериалы, книги и музыку.