img image001 image001 image001 image001 image001 image001 image001 image001 image001 image001 image001 image001 image001 image001 image001

Planets Sun Sun Sun
Статистика раздачи
Автор: Снежана | Размер: 744.3 МБ | Добавлен: 27 июл 2013
Раздают: 4    Качают: 2
Скачать торрент
Скачать торрент
Описание торрента

СообщениеДобавлено: 27 июл 2013 

#77
Год выпуска: 1990
Страна: CША
Студия: Filmation Associates, Kel Air Productions

Перевод: Профессиональный (многоголосый закадровый)
Жанр: мультфильм, мюзикл, фэнтези, семейный
Продолжительность: 01:11:02

Режиссер: Джон Хаули / John Howley

Роли озвучивали: Эдвард Эснер, Айрин Кэра, Кэрол Чэннинг, Дом ДеЛуиз, Филлис Диллер, Жа Жа Габор, Линда Гэри, Джонатан Харрис, Майкл Хортон, Сэлли Келлермен...

Описание: Белоснежка собирается замуж за принца, но влюбленную пару похищает дракон. Счастливо выпав (в буквальном смысле слова) из его когтей она попадает на сей раз не к семи гномам, а к их кузинам…





Качество: DVDRip-AVC
Формат: MKV

Видео: 704x572@768x572 (4:3), 25 fps, H264 ~ 1335 kbps avg, 0.133 bit/pixel
Аудио: 48 kHz, AC3, 2 ch, 128.00 kbps

Раздача от:
Общее
Полное имя : Novye.prikljuchenija.Belosnezhki.1990.DVDRip-AVC_[Youtracker]_by_AVP Studio.mkv
Формат : Matroska
Версия формата : Version 2
Размер файла : 744 Мбайт
Продолжительность : 1 ч. 11 м.
Общий поток : 1465 Кбит/сек
Дата кодирования : UTC 2012-10-08 00:40:21
Программа кодирования : mkvmerge v5.0.1 ('Es ist Sommer') built on Nov 6 2011 16:23:40
Библиотека кодирования : libebml v1.2.2 + libmatroska v1.3.0

Видео
Идентификатор : 1
Формат : AVC
Формат/Информация : Advanced Video Codec
Профиль формата : High@L4.1
Параметр CABAC формата : Да
Параметр ReFrames формата : 11 кадров
Идентификатор кодека : V_MPEG4/ISO/AVC
Продолжительность : 1 ч. 11 м.
Битрейт : 1335 Кбит/сек
Ширина : 704 пикселя
Высота : 572 пикселя
Соотношение сторон : 4:3
Соотношение сторон в оригинале : 4:3
Частота кадров : 25,000 кадров/сек
Цветовое пространство : YUV
Субдискретизация насыщенности : 4:2:0
Битовая глубина : 8 бит
Тип развёртки : Прогрессивная
Бит/(Пиксели*Кадры) : 0.133
Размер потока : 664 Мбайт (89%)
Библиотека кодирования : x264 core 119 r2106 07efeb4
Настройки программы : cabac=1 / ref=11 / deblock=1:-2:-1 / analyse=0x3:0x113 / me=umh / subme=9 / psy=1 / psy_rd=1.00:0.20 / mixed_ref=1 / me_range=32 / chroma_me=1 / trellis=1 / 8x8dct=1 / cqm=0 / deadzone=21,11 / fast_pskip=0 / chroma_qp_offset=-3 / threads=3 / sliced_threads=0 / nr=0 / decimate=0 / interlaced=0 / bluray_compat=0 / constrained_intra=0 / bframes=8 / b_pyramid=2 / b_adapt=2 / b_bias=0 / direct=3 / weightb=1 / open_gop=0 / weightp=2 / keyint=250 / keyint_min=25 / scenecut=40 / intra_refresh=0 / rc_lookahead=60 / rc=2pass / mbtree=1 / bitrate=1335 / ratetol=1.0 / qcomp=0.60 / qpmin=0 / qpmax=69 / qpstep=4 / cplxblur=20.0 / qblur=0.5 / ip_ratio=1.40 / aq=1:1.00
Default : Да
Forced : Нет

Аудио
Идентификатор : 2
Формат : AC-3
Формат/Информация : Audio Coding 3
Расширение режима : CM (complete main)
Идентификатор кодека : A_AC3
Продолжительность : 1 ч. 11 м.
Вид битрейта : Постоянный
Битрейт : 128 Кбит/сек
Каналы : 2 канала
Расположение каналов : Front: L R
Частота : 48,0 КГц
Битовая глубина : 16 бит
Метод сжатия : С потерями
Размер потока : 65,0 Мбайт (9%)
Default : Да
Forced : Нет





   Похожие торренты   Торрент   Размер 
В этой теме нет новых непрочитанных сообщений. Новые приключения Белоснежки / Happily Ever After (1990) DVDRip от Youtracker | P

37 | 2

744.96 МБ

В этой теме нет новых непрочитанных сообщений. Новые приключения Белоснежки / Happily Ever After (1990) DVD5 от Youtracker | P

0 | 1

3.98 ГБ

В этой теме нет новых непрочитанных сообщений. Новая история Белоснежки / Happily N`Ever After 2 (2009) DVDRip

16 | 4

1.36 ГБ

В этой теме нет новых непрочитанных сообщений. Новые приключения Золушки / Happily N'Ever After (2006) HDRip-AVC от ExKinoRay

399 | 24

1.72 ГБ

В этой теме нет новых непрочитанных сообщений. Новые приключения Золушки / Happily N'Ever After (2007) BDRip от HQ-ViDEO

49 | 6

1.46 ГБ

В этой теме нет новых непрочитанных сообщений. Новые приключения Золушки / Happily N'Ever After (2006) HDTV 720p от PskovLine

4 | 3

4.61 ГБ

В этой теме нет новых непрочитанных сообщений. Новые приключения Пса и его друзей / Рок кукареку / Rock-A-Doodle (1990) DVDRip от Sheikn

150 | 13

1.54 ГБ




Вы не можете начинать темы
Вы не можете отвечать на сообщения
Вы не можете редактировать свои сообщения
Вы не можете удалять свои сообщения
Вы не можете добавлять вложения

Перейти:  
Для Мосгорсуда, Роскомнадзора и рекламодателей: mosgorsud-torrent[собачка]yandex.ru
 Вход
ppkBB3cker v.2 © 2008-2014 @ PPK
[ Time : 0.564s | 15 Queries | GZIP : Off ]

Торрент трекер RUTOR.IN, Не можете зайти на rutor.org? Какой новый адрес рутор? Какое зеркало рутор? Не работает rutor.org и зеркала? Тогда наш торрент специально для вас. Rutor.in неофициальное зеркало rutor. В случае если у Вас заблокирован rutor или вдруг Вы не можете на него зайти, то Вы без труда сможете скачать бесплатно и без рекламы последние новинки кино, игр, сериалов и прочего у нас, на Rutor.in. Не нужно использовать прокси, чтобы зайти на рутор, достаточно воспользоваться нашим ресурсом. Все новые фильмы, игры, сериалы, книги и музыка за 2013 и 2014 годы через торрент бесплатно. Скачивайте фильмы в хорошем качестве, игры для пк, xbox, playstation без регистрации. У нас вы найдете новые Зарубежные сериалы и Русские сериалы 2013, 2014, 2015 годов. Оставайтесь с нами, качайте любимые фильмы, игры, сериалы, книги и музыку.
cron